<?xml version="1.0" standalone="no"?>
<!DOCTYPE svg PUBLIC "-//W3C//DTD SVG 1.1//EN" "http://www.w3.org/Graphics/SVG/1.1/DTD/svg11.dtd" >
<svg>
<metadata>
Created by FontForge 20110222 at Sun Oct 12 07:53:50 2014
 By deploy user
Copyright (c) 2010 - 2012, Matt McInerney (matt@pixelspread.com), Pablo Impallari(impallari@gmail.com), Rodrigo Fuenzalida (hello@rfuenzalida.com) with Reserved Font Name "Raleway"
</metadata>
<defs>
<font id="Raleway-Bold" horiz-adv-x="253" >
  <font-face 
    font-family="Raleway"
    font-weight="700"
    font-stretch="normal"
    units-per-em="1000"
    panose-1="2 11 0 3 3 1 1 6 0 3"
    ascent="800"
    descent="-200"
    x-height="524"
    cap-height="709"
    bbox="-201 -229 1139 923"
    underline-thickness="50"
    underline-position="-50"
    unicode-range="U+000D-FB06"
  />
<missing-glyph horiz-adv-x="0" 
 />
    <glyph glyph-name="f_f" unicode="ff" horiz-adv-x="653" 
d="M568 626q-39 0 -58.5 -26.5t-19.5 -66.5v-70h138v-103h-138v-360h-134v360h-128v-360h-134v360h-68v103h68v32q0 91 47.5 150t130.5 59q61 0 129 -29q52 65 140 65q52 0 126 -31l-27 -101q-38 18 -72 18zM356 463v52q0 43 9 61q-28 14 -66 14q-36 0 -53.5 -26.5
t-17.5 -63.5v-37h128z" />
    <glyph glyph-name="f_i" unicode="fi" horiz-adv-x="569" 
d="M94 0v360h-68v103h68v65q0 90 58 151t156 61q96 0 194 -65l-54 -100q-60 51 -132 51q-42 0 -65 -27t-23 -66v-70h281v-463h-134v360h-147v-360h-134z" />
    <glyph glyph-name="f_l" unicode="fl" horiz-adv-x="659" 
d="M642 125l18 -108q-2 -2 -19.5 -7.5t-48.5 -11.5t-58 -6q-60 0 -96.5 32.5t-36.5 79.5v408q0 114 -86 114q-45 0 -66 -33.5t-21 -83.5v-46h88v-103h-88v-360h-134v360h-68v103h68v77q0 96 58 148t161 52q111 0 166.5 -52.5t55.5 -143.5v-373q0 -22 12.5 -40.5t36.5 -18.5
q10 0 24 3t24 7z" />
    <glyph glyph-name="f_f_i" unicode="ffi" horiz-adv-x="832" 
d="M94 0v360h-68v103h68v32q0 91 47.5 150t130.5 59q61 0 129 -29q60 65 167 65q93 0 196 -65l-54 -100q-58 51 -128 51q-46 0 -69 -26.5t-23 -66.5v-70h282v-463h-134v360h-148v-360h-134v360h-128v-360h-134zM228 463h128v52q0 43 9 61q-28 14 -66 14q-36 0 -53.5 -26.5
t-17.5 -63.5v-37z" />
    <glyph glyph-name="f_f_l" unicode="ffl" horiz-adv-x="922" 
d="M798 -8q-61 0 -97.5 32.5t-36.5 79.5v408q0 114 -86 114q-45 0 -66 -33.5t-21 -83.5v-46h87v-103h-87v-360h-134v360h-129v-360h-134v360h-68v103h68v35q0 92 49 149t131 57q58 0 128 -29q56 65 174 65q111 0 166.5 -52.5t55.5 -143.5v-373q0 -23 12.5 -41t35.5 -18
q11 0 25 3t24 7l10 3l18 -108q-2 -2 -19.5 -7.5t-48.5 -11.5t-57 -6zM228 463h129v51q0 49 7 63q-26 13 -61 13q-37 0 -56 -24.5t-19 -62.5v-40z" />
    <glyph glyph-name=".notdef" horiz-adv-x="0" 
 />
    <glyph glyph-name=".null" horiz-adv-x="0" 
 />
    <glyph glyph-name="nonmarkingreturn" horiz-adv-x="333" 
 />
    <glyph glyph-name="NULL" horiz-adv-x="0" 
 />
    <glyph glyph-name="NULL" horiz-adv-x="0" 
 />
    <glyph glyph-name="CR" unicode="&#xd;" horiz-adv-x="0" 
 />
    <glyph glyph-name="space" unicode=" " horiz-adv-x="239" 
 />
    <glyph glyph-name="exclam" unicode="!" horiz-adv-x="289" 
d="M212 267h-134v450h134v-450zM212 0h-134v151h134v-151z" />
    <glyph glyph-name="quotedbl" unicode="&#x22;" horiz-adv-x="386" 
d="M171 539h-114v184h114v-184zM329 539h-114v184h114v-184z" />
    <glyph glyph-name="numbersign" unicode="#" horiz-adv-x="724" 
d="M686 518v-94h-145l-33 -137h131v-100h-155l-46 -187h-108l47 187h-120l-45 -187h-108l46 187h-112v100h136l33 137h-122v94h145l47 192h108l-48 -192h120l46 192h108l-47 -192h122zM281 287h120l32 137h-119z" />
    <glyph glyph-name="dollar" unicode="$" horiz-adv-x="634" 
d="M570 636l-61 -112q-16 17 -65.5 40t-101.5 28v-173l25 -6q117 -30 172.5 -74.5t55.5 -135.5q0 -103 -68 -154.5t-175 -55.5v-110h-60v111q-148 11 -258 90l61 119q21 -22 81.5 -50t124.5 -35v172l-37 10q-106 29 -153.5 71t-47.5 121q0 98 63.5 155.5t165.5 65.5v102h60
v-101q114 -9 218 -78zM448 189q0 32 -26 52t-80 37v-162q106 3 106 73zM205 514q0 -32 22.5 -50t73.5 -33v162q-96 -6 -96 -79z" />
    <glyph glyph-name="percent" unicode="%" horiz-adv-x="793" 
d="M203 417q-68 0 -116.5 44t-48.5 108q0 63 48.5 107t116.5 44q70 0 117.5 -44t47.5 -107q0 -64 -47.5 -108t-117.5 -44zM203 484q29 0 50 25t21 60q0 34 -21 59t-50 25t-50 -25t-21 -59q0 -35 21 -60t50 -25zM589 -10q-68 0 -116 44t-48 107q0 64 48 108t116 44
q70 0 117.5 -44t47.5 -108q0 -63 -47.5 -107t-117.5 -44zM589 57q30 0 51 25t21 59q0 35 -21.5 60t-50.5 25t-50 -25t-21 -60q0 -34 21 -59t50 -25zM156 -7l-61 54l282 329l260 342l61 -54l-276 -322z" />
    <glyph glyph-name="ampersand" unicode="&#x26;" horiz-adv-x="716" 
d="M712 0h-176l-56 59q-89 -69 -200 -69q-106 0 -172.5 61.5t-66.5 149.5q0 108 122 196q-42 48 -58.5 81.5t-16.5 70.5q0 76 55 123t139 47q79 0 134 -41.5t55 -115.5q0 -97 -121 -183l137 -143q32 69 32 153h109q-1 -137 -63 -235zM294 95q62 0 114 40l-164 174
q-74 -54 -74 -109q0 -44 35 -74.5t89 -30.5zM210 553q0 -17 11.5 -33.5t45.5 -53.5q44 28 63 48t19 46q0 27 -19 43.5t-48 16.5q-32 0 -52 -19.5t-20 -47.5z" />
    <glyph glyph-name="quotesingle" unicode="'" horiz-adv-x="222" 
d="M168 545h-114v178h114v-178z" />
    <glyph glyph-name="parenleft" unicode="(" horiz-adv-x="308" 
d="M34 347q0 93 38 190.5t110 219.5l103 -43q-43 -65 -84.5 -172t-41.5 -198q0 -140 122 -348l-97 -49q-150 221 -150 400z" />
    <glyph glyph-name="parenright" unicode=")" horiz-adv-x="308" 
d="M274 347q0 -179 -150 -400l-98 49q123 207 123 348q0 91 -41.5 198t-84.5 172l103 43q72 -122 110 -219.5t38 -190.5z" />
    <glyph glyph-name="asterisk" unicode="*" horiz-adv-x="345" 
d="M127 486l-52 34l47 71l-71 22l18 58l73 -31l-5 77h71l-5 -77l72 31l18 -58l-70 -22l47 -71l-52 -34l-45 75z" />
    <glyph glyph-name="plus" unicode="+" horiz-adv-x="424" 
d="M272 409h103v-108h-103v-113h-120v113h-104v108h104v113h120v-113z" />
    <glyph glyph-name="comma" unicode="," horiz-adv-x="236" 
d="M32 -113v95q33 0 33 31v131h110v-155q0 -54 -43.5 -78t-99.5 -24z" />
    <glyph glyph-name="hyphen" unicode="-" horiz-adv-x="417" 
d="M360 214h-303v121h303v-121z" />
    <glyph glyph-name="period" unicode="." horiz-adv-x="224" 
d="M167 0h-110v144h110v-144z" />
    <glyph glyph-name="slash" unicode="/" horiz-adv-x="698" 
d="M523 710h149l-496 -710h-148z" />
    <glyph glyph-name="zero" unicode="0" horiz-adv-x="615" 
d="M566 293q0 -131 -73.5 -217t-184.5 -86q-112 0 -185.5 85.5t-73.5 217.5t73.5 218t185.5 86q111 0 184.5 -86t73.5 -218zM431 293q0 80 -34.5 130.5t-88.5 50.5q-56 0 -90.5 -50t-34.5 -131q0 -80 34.5 -130t90.5 -50q54 0 88.5 50t34.5 130z" />
    <glyph glyph-name="one" unicode="1" horiz-adv-x="492" 
d="M342 121h127v-121h-406v121h142v303q-18 -24 -71 -48.5t-91 -24.5v125q34 0 93 37.5t69 57.5h137v-450z" />
    <glyph glyph-name="two" unicode="2" horiz-adv-x="569" 
d="M523 0h-482q0 93 33.5 151.5t123.5 108.5q18 10 43 23.5t38 20.5t30 17t25.5 16.5t17 15.5t11.5 18t3 20q0 31 -25 52t-68 21q-75 0 -140 -77l-86 99q33 35 101 65t149 30q100 0 157.5 -47t57.5 -123q0 -33 -12 -61t-35 -49.5t-41.5 -34.5t-46.5 -29q-35 -19 -54.5 -31
t-47.5 -36.5t-39 -48.5h287v-121z" />
    <glyph glyph-name="three" unicode="3" horiz-adv-x="559" 
d="M381 236q63 -11 101.5 -59.5t38.5 -118.5q0 -94 -70.5 -149.5t-189.5 -55.5q-153 0 -232 96l76 95q53 -69 151 -69q126 0 126 98q0 108 -149 108h-28v100h31q60 0 94.5 27t34.5 71q0 39 -27 60t-73 21q-93 0 -142 -80l-84 94q30 46 96.5 74t144.5 28q102 0 165 -49
t63 -128q0 -60 -35.5 -106.5t-91.5 -56.5z" />
    <glyph glyph-name="four" unicode="4" horiz-adv-x="565" 
d="M447 -127h-134v149h-292v119l334 430h92v-429h88v-120h-88v-149zM328 368l-173 -226h173v226z" />
    <glyph glyph-name="five" unicode="5" horiz-adv-x="555" 
d="M289 319q101 0 167.5 -64t66.5 -164q0 -106 -74 -173t-188 -67q-77 0 -139 33t-94 90l77 80q29 -39 70.5 -62t86.5 -23q54 0 88.5 33t34.5 86q0 51 -32.5 83.5t-82.5 32.5q-70 0 -107 -56h-117l82 423h350v-122h-253l-28 -159q27 29 92 29z" />
    <glyph glyph-name="six" unicode="6" horiz-adv-x="607" 
d="M567 237q0 -104 -74.5 -175.5t-184.5 -71.5q-121 0 -191.5 86.5t-70.5 239.5q0 192 73.5 295.5t201.5 103.5q139 0 220 -112l-77 -84q-24 38 -62.5 59t-82.5 21q-67 0 -107 -54t-41 -149q20 36 59.5 57t89.5 21q105 0 176 -68t71 -169zM308 103q53 0 92 39.5t39 94.5
q0 54 -38.5 92t-92.5 38t-92.5 -38t-38.5 -92t39 -94t92 -40z" />
    <glyph glyph-name="seven" unicode="7" horiz-adv-x="574" 
d="M67 -127l293 588h-323v122h534l-353 -710h-151z" />
    <glyph glyph-name="eight" unicode="8" horiz-adv-x="605" 
d="M560 210q0 -97 -75.5 -158t-183.5 -61q-107 0 -182 63.5t-75 160.5q0 55 33 98.5t79 66.5q-39 19 -64.5 55t-25.5 78q0 89 73.5 143t162.5 54q90 0 163.5 -53t73.5 -143q0 -42 -26 -79t-65 -55q48 -24 80 -68.5t32 -101.5zM424 218q0 48 -36.5 77t-85.5 29
q-50 0 -86 -29.5t-36 -76.5q0 -46 37 -76t86 -30q48 0 84.5 30.5t36.5 75.5zM202 509q0 -39 30.5 -61.5t69.5 -22.5t70 23t31 62q0 36 -29.5 58.5t-71.5 22.5t-71 -23t-29 -59z" />
    <glyph glyph-name="nine" unicode="9" horiz-adv-x="589" 
d="M32 324q0 104 74.5 175.5t184.5 71.5q121 0 191.5 -86.5t70.5 -239.5q0 -192 -73.5 -295.5t-201.5 -103.5q-139 0 -220 112l77 84q24 -38 62.5 -59t82.5 -21q67 0 107 54t41 149q-20 -36 -59.5 -57t-89.5 -21q-105 0 -176 68t-71 169zM291 458q-53 0 -92 -39.5t-39 -94.5
q0 -54 38.5 -92t92.5 -38t92.5 38t38.5 92t-39 94t-92 40z" />
    <glyph glyph-name="colon" unicode=":" horiz-adv-x="243" 
d="M176 374h-109v144h109v-144zM176 0h-109v144h109v-144z" />
    <glyph glyph-name="semicolon" unicode=";" horiz-adv-x="250" 
d="M181 374h-110v144h110v-144zM38 -113v95q33 0 33 31v131h110v-155q0 -54 -43.5 -78t-99.5 -24z" />
    <glyph glyph-name="less" unicode="&#x3c;" horiz-adv-x="509" 
d="M32 223v65l422 255v-142l-227 -142l227 -136v-150z" />
    <glyph glyph-name="equal" unicode="=" horiz-adv-x="437" 
d="M375 144h-313v87h313v-87zM375 321h-313v87h313v-87z" />
    <glyph glyph-name="greater" unicode="&#x3e;" horiz-adv-x="509" 
d="M477 288v-65l-422 -250v150l227 136l-227 142v142z" />
    <glyph glyph-name="question" unicode="?" horiz-adv-x="490" 
d="M234 233h-110q0 54 17.5 91.5t64.5 64.5q4 2 28 15t36.5 22t30.5 24.5t26.5 34t8.5 39.5q0 39 -28 62.5t-67 23.5q-71 0 -118 -80l-87 60q26 60 82.5 94.5t126.5 34.5q85 0 146.5 -50t61.5 -147q0 -60 -26.5 -98t-78.5 -70q-9 -6 -31.5 -18.5t-32.5 -19.5t-24 -20
t-20 -28t-6 -35zM237 0h-111v138h111v-138z" />
    <glyph glyph-name="at" unicode="@" horiz-adv-x="836" 
d="M423 603q156 0 265 -102t109 -278q0 -24 -2 -48t-11 -60.5t-24.5 -63.5t-46 -47t-71.5 -20q-84 0 -95 82q-71 -71 -172 -71q-75 0 -115.5 39.5t-40.5 102.5q0 40 16.5 69.5t45 46t61 24.5t68.5 8q64 0 115 -23q0 60 -25.5 91.5t-89.5 31.5q-79 0 -133 -44l-25 71
q74 50 172 50q49 0 84.5 -14t53.5 -33t28.5 -50.5t12.5 -54.5t2 -57v-96q0 -55 9.5 -84t41.5 -29q33 0 53.5 35.5t26 72.5t5.5 75q0 138 -90.5 230t-232.5 92q-140 0 -229 -90t-89 -229q0 -137 86 -229.5t224 -92.5q69 0 154 38l17 -52q-81 -40 -175 -40
q-152 0 -257.5 105.5t-105.5 271.5q0 114 54 200t139.5 129t186.5 43zM470 90q54 26 54 79v30q-57 21 -112 21q-50 0 -80.5 -18.5t-30.5 -56.5q0 -32 21 -54.5t61 -22.5q41 0 87 22z" />
    <glyph glyph-name="A" unicode="A" horiz-adv-x="675" 
d="M148 0h-146l280 710h112l279 -710h-146l-65 177h-249zM437 274l-99 287l-102 -287h201z" />
    <glyph glyph-name="B" unicode="B" horiz-adv-x="680" 
d="M646 183q0 -86 -65.5 -134.5t-163.5 -48.5h-343v710h380q72 0 117 -55t45 -126q0 -53 -27 -98.5t-75 -66.5q62 -18 97 -65t35 -116zM507 209q0 39 -24 67t-59 28h-212v-187h205q37 0 63.5 27t26.5 65zM402 592h-190v-179h184q36 0 60 24.5t24 65.5q0 40 -22 64.5
t-56 24.5z" />
    <glyph glyph-name="C" unicode="C" horiz-adv-x="670" 
d="M32 360q0 89 39 168.5t118.5 132.5t182.5 53q92 0 162.5 -42t104.5 -113l-106 -73q-23 55 -68.5 80.5t-96.5 25.5q-92 0 -144.5 -71.5t-52.5 -164.5q0 -97 57 -168.5t143 -71.5q51 0 97.5 27t68.5 81l113 -65q-31 -76 -113 -120.5t-170 -44.5q-142 0 -238.5 112.5
t-96.5 253.5z" />
    <glyph glyph-name="D" unicode="D" horiz-adv-x="718" 
d="M332 0h-258v710h258q167 0 258.5 -100t91.5 -254q0 -162 -95.5 -259t-254.5 -97zM543 356q0 105 -56 169t-155 64h-120v-468h120q99 0 155 65.5t56 169.5z" />
    <glyph glyph-name="E" unicode="E" horiz-adv-x="604" 
d="M212 121h355v-121h-493v710h484v-121h-346v-171h299v-112h-299v-185z" />
    <glyph glyph-name="F" unicode="F" horiz-adv-x="571" 
d="M212 0h-138v710h477v-121h-339v-183h282v-112h-282v-294z" />
    <glyph glyph-name="G" unicode="G" horiz-adv-x="709" 
d="M550 0v80q-82 -85 -189 -85q-89 0 -165 51t-119.5 135t-43.5 178q0 147 97 251.5t240 104.5q95 0 165 -41.5t105 -113.5l-103 -76q-25 52 -71 80.5t-101 28.5q-85 0 -139 -69.5t-54 -168.5q0 -101 57 -169.5t144 -68.5q98 0 177 97v50h-143v101h257v-365h-114z" />
    <glyph glyph-name="H" unicode="H" horiz-adv-x="745" 
d="M534 710h137v-710h-137v303h-322v-303h-138v710h138v-287h322v287z" />
    <glyph glyph-name="I" unicode="I" horiz-adv-x="286" 
d="M212 0h-138v709h138v-709z" />
    <glyph glyph-name="J" unicode="J" horiz-adv-x="495" 
d="M11 33l31 112q47 -34 123 -34q79 0 102.5 53t23.5 185v360h138v-360q0 -72 -5 -121.5t-21 -98t-44 -77t-76.5 -46t-117.5 -17.5q-90 0 -154 44z" />
    <glyph glyph-name="K" unicode="K" horiz-adv-x="667" 
d="M212 0h-138v709h138v-346l307 347h143l-272 -315l289 -395h-146l-226 317l-95 -103v-214z" />
    <glyph glyph-name="L" unicode="L" horiz-adv-x="589" 
d="M574 0h-500v710h138v-589h362v-121z" />
    <glyph glyph-name="M" unicode="M" horiz-adv-x="865" 
d="M791 0h-138v470l-183 -350h-75l-183 350v-470h-138v710h148l210 -404l212 404h147v-710z" />
    <glyph glyph-name="N" unicode="N" horiz-adv-x="763" 
d="M577 0l-365 455v-455h-138v710h107l370 -466v465h138v-709h-112z" />
    <glyph glyph-name="O" unicode="O" horiz-adv-x="740" 
d="M369 -5q-97 0 -175.5 52.5t-119.5 134t-41 173.5q0 145 98 252.5t241 107.5q97 0 175 -53.5t119 -135.5t41 -173q0 -144 -97 -251t-241 -107zM172 355q0 -97 54.5 -167.5t144.5 -70.5t143.5 72t53.5 166q0 96 -55 166.5t-143 70.5q-90 0 -144 -71.5t-54 -165.5z" />
    <glyph glyph-name="P" unicode="P" horiz-adv-x="621" 
d="M212 0h-138v710h301q95 0 160.5 -72.5t65.5 -163.5q0 -94 -62.5 -165t-158.5 -71h-168v-238zM212 589v-230h160q39 0 64 31.5t25 83.5t-28 83.5t-67 31.5h-154z" />
    <glyph glyph-name="Q" unicode="Q" horiz-adv-x="742" 
d="M590 0l-43 48q-82 -53 -178 -53q-146 1 -241 109.5t-95 250.5q0 145 98 252.5t241 107.5q97 0 175 -53.5t119 -135.5t41 -173q0 -137 -87 -240l101 -113h-131zM371 117q51 0 92 25l-107 121h131l44 -50q37 65 37 142q0 97 -55 167.5t-143 70.5q-90 0 -144 -72t-54 -166
q0 -97 54.5 -167.5t144.5 -70.5z" />
    <glyph glyph-name="R" unicode="R" horiz-adv-x="674" 
d="M212 0h-138v710h314q95 0 160.5 -72.5t65.5 -163.5q0 -69 -35 -125.5t-93 -81.5l167 -267h-156l-149 238h-136v-238zM212 589v-230h173q38 0 64 33.5t26 81.5t-29 81.5t-67 33.5h-167z" />
    <glyph glyph-name="S" unicode="S" horiz-adv-x="615" 
d="M559 636l-61 -112q-18 20 -76 45t-115 25q-113 0 -113 -80q0 -40 34.5 -58.5t127.5 -42.5q117 -30 172.5 -74.5t55.5 -135.5q0 -108 -74 -159.5t-189 -51.5q-168 0 -298 92l61 119q25 -25 96.5 -56t142.5 -31q114 0 114 73q0 42 -40 62.5t-135 46.5q-6 1 -9 2
q-106 29 -153.5 71t-47.5 121q0 105 73 164t186 59q131 0 248 -79z" />
    <glyph glyph-name="T" unicode="T" horiz-adv-x="620" 
d="M605 710v-121h-226v-589h-138v589h-227v121h591z" />
    <glyph glyph-name="U" unicode="U" horiz-adv-x="748" 
d="M373 117q63 0 103.5 35t55.5 84t15 112v362h137v-362q0 -156 -77 -254.5t-233 -98.5q-82 0 -144 29t-97.5 79t-52.5 111.5t-17 133.5v362h138v-362q0 -100 41 -165.5t131 -65.5z" />
    <glyph glyph-name="V" unicode="V" horiz-adv-x="673" 
d="M0 710h145l192 -537l190 537h145l-277 -710h-116z" />
    <glyph glyph-name="W" unicode="W" horiz-adv-x="1053" 
d="M438 385l-119 323h127l80 -235l80 235h128l-121 -323l90 -227l201 552h150l-289 -710h-116l-123 298l-123 -298h-116l-288 710h149l202 -552z" />
    <glyph glyph-name="X" unicode="X" horiz-adv-x="644" 
d="M-4 710h150l177 -264l176 264h149l-253 -360l245 -350h-149l-168 254l-169 -254h-150l245 350z" />
    <glyph glyph-name="Y" unicode="Y" horiz-adv-x="644" 
d="M-4 710h150l175 -342l178 342h149l-258 -462v-248h-137v250z" />
    <glyph glyph-name="Z" unicode="Z" horiz-adv-x="623" 
d="M28 0v104l401 485h-390v121h549v-104l-388 -485h391v-121h-563z" />
    <glyph glyph-name="bracketleft" unicode="[" horiz-adv-x="301" 
d="M259 -40h-188v780h188v-107h-64v-566h64v-107z" />
    <glyph glyph-name="backslash" unicode="\" horiz-adv-x="638" 
d="M26 710h149l435 -710h-148z" />
    <glyph glyph-name="bracketright" unicode="]" horiz-adv-x="301" 
d="M229 -40h-187v107h63v566h-63v107h187v-780z" />
    <glyph glyph-name="asciicircum" unicode="^" horiz-adv-x="587" 
d="M148 303h-108l198 407h112l197 -407h-110l-143 294z" />
    <glyph glyph-name="underscore" unicode="_" horiz-adv-x="382" 
d="M374 -121h-366v121h366v-121z" />
    <glyph glyph-name="grave" unicode="`" horiz-adv-x="255" 
d="M140 585l-93 145h124l55 -119z" />
    <glyph glyph-name="a" unicode="a" horiz-adv-x="578" 
d="M204 -10q-77 0 -128 47.5t-51 118.5q0 75 62.5 122t160.5 47q76 0 128 -23v30q0 52 -30 80t-87 28q-79 0 -164 -59l-41 85q101 67 218 67q113 0 175.5 -56t62.5 -160v-163q0 -39 36 -40v-114q-35 -7 -64 -7q-72 1 -83 62l-3 29q-72 -94 -192 -94zM242 88q75 0 112 44
q22 17 22 38v60q-53 20 -106 20q-52 0 -85 -23.5t-33 -59.5q0 -34 26 -56.5t64 -22.5z" />
    <glyph glyph-name="b" unicode="b" horiz-adv-x="633" 
d="M358 -10q-59 0 -106.5 27t-74.5 74v-91h-117v730h134v-298q59 101 179 101q101 0 165.5 -79.5t64.5 -193.5t-70.5 -192t-174.5 -78zM321 104q63 0 104 45.5t41 109.5q0 65 -39 112.5t-98 47.5q-43 0 -79 -28.5t-56 -73.5v-125q13 -39 50 -63.5t77 -24.5z" />
    <glyph glyph-name="c" unicode="c" horiz-adv-x="564" 
d="M28 262q0 113 76 192t200 79q83 0 144.5 -36t92.5 -98l-131 -40q-35 60 -107 60q-58 0 -97.5 -44t-39.5 -113q0 -68 40 -113t97 -45q36 0 66.5 17.5t42.5 44.5l131 -40q-28 -61 -91 -98.5t-147 -37.5q-124 0 -200.5 79.5t-76.5 192.5z" />
    <glyph glyph-name="d" unicode="d" horiz-adv-x="649" 
d="M277 -10q-108 0 -178 78.5t-70 193.5t66 193t168 78q56 0 103 -28t73 -73v298h134v-576q0 -39 36 -40v-114q-38 -7 -64 -7q-73 1 -83 62l-3 36q-28 -48 -77 -74.5t-105 -26.5zM312 104q39 0 76.5 25t51.5 63v125q-16 43 -55.5 72.5t-80.5 29.5q-59 0 -98 -47.5
t-39 -112.5q0 -66 41.5 -110.5t103.5 -44.5z" />
    <glyph glyph-name="e" unicode="e" horiz-adv-x="600" 
d="M304 -10q-123 0 -199.5 78.5t-76.5 190.5q0 115 76 194.5t201 79.5q124 0 198.5 -79t74.5 -190q0 -28 -3 -45h-405q5 -60 45 -95.5t94 -35.5q41 0 76.5 19.5t47.5 51.5l115 -32q-29 -62 -94 -99.5t-150 -37.5zM168 306h272q-5 58 -43.5 94t-93.5 36t-93 -36t-42 -94z" />
    <glyph glyph-name="f" unicode="f" horiz-adv-x="381" 
d="M228 0h-134v360h-68v103h68v65q0 97 47.5 154.5t127.5 57.5q64 0 129 -31l-27 -101q-35 19 -73 19q-70 0 -70 -94v-70h128v-103h-128v-360z" />
    <glyph glyph-name="g" unicode="g" horiz-adv-x="633" 
d="M265 -3q-102 0 -168.5 77.5t-66.5 187.5q0 115 68.5 193t174.5 78q118 0 183 -101v92h117v-499q0 -114 -81 -181t-209 -67q-158 0 -246 109l73 71q30 -37 76 -58t97 -21q68 0 112 37t44 110v66q-26 -44 -73 -69t-101 -25zM311 104q42 0 77.5 25.5t50.5 62.5v125
q-18 45 -56 73.5t-80 28.5q-60 0 -98.5 -48t-38.5 -113t42 -109.5t103 -44.5z" />
    <glyph glyph-name="h" unicode="h" horiz-adv-x="602" 
d="M547 327v-327h-134v294q0 121 -88 121q-38 0 -77 -31t-54 -78v-306h-134v730h134v-303q29 50 79 78t109 28q165 0 165 -206z" />
    <glyph glyph-name="i" unicode="i" 
d="M194 0h-134v524h134v-524zM194 597h-134v133h134v-133z" />
    <glyph glyph-name="j" unicode="j" 
d="M12 -196q-80 0 -133 47l57 91q23 -22 59 -22q27 0 46 18.5t19 47.5v538h134v-528q0 -84 -52.5 -138t-129.5 -54zM194 597h-134v133h134v-133z" />
    <glyph glyph-name="k" unicode="k" horiz-adv-x="557" 
d="M561 0h-143l-152 227l-72 -71v-156h-134v730h134v-443l210 236h143l-196 -222z" />
    <glyph glyph-name="l" unicode="l" horiz-adv-x="317" 
d="M59 121v609h134v-556q0 -61 55 -61q21 0 53 13l18 -107q-57 -27 -128 -27q-62 0 -97 34t-35 95z" />
    <glyph glyph-name="m" unicode="m" horiz-adv-x="929" 
d="M874 327v-327h-134v294q0 121 -82 121q-39 0 -74 -31t-50 -79v-305h-134v294q0 121 -81 121q-39 0 -74.5 -30.5t-50.5 -78.5v-306h-134v524h121v-97q61 106 195 106q62 0 99.5 -30.5t48.5 -80.5q65 111 193 111q157 0 157 -206z" />
    <glyph glyph-name="n" unicode="n" horiz-adv-x="602" 
d="M547 327v-327h-134v294q0 121 -83 121q-41 0 -81 -31.5t-55 -77.5v-306h-134v524h121v-97q29 50 84 78t124 28q158 0 158 -206z" />
    <glyph glyph-name="o" unicode="o" horiz-adv-x="605" 
d="M303 -10q-124 0 -199.5 79.5t-75.5 191.5q0 114 75.5 193t199.5 79t199 -79t75 -193q0 -113 -75 -192t-199 -79zM166 261q0 -68 39.5 -112.5t97.5 -44.5t97.5 45t39.5 113t-39.5 112.5t-97.5 44.5t-97.5 -45t-39.5 -113z" />
    <glyph glyph-name="p" unicode="p" horiz-adv-x="632" 
d="M373 -10q-60 0 -106.5 27.5t-72.5 74.5v-305h-134v737h117v-90q63 99 181 99q105 0 175 -79t70 -191q0 -116 -65 -194.5t-165 -78.5zM329 104q59 0 98 47.5t39 111.5q0 66 -41.5 111t-103.5 45q-39 0 -76.5 -25t-50.5 -63v-123q18 -45 55.5 -74.5t79.5 -29.5z" />
    <glyph glyph-name="q" unicode="q" horiz-adv-x="632" 
d="M258 -10q-99 0 -164 79t-65 194q0 114 70.5 192t174.5 78q118 0 181 -100v91h117v-576q0 -22 8 -30.5t28 -9.5v-114q-34 -6 -74 -6t-68 26t-28 65v213q-59 -102 -180 -102zM308 104q79 0 130 86v124q-11 44 -50 74.5t-82 30.5q-60 0 -100 -47.5t-40 -112.5
q0 -66 40 -110.5t102 -44.5z" />
    <glyph glyph-name="r" unicode="r" horiz-adv-x="387" 
d="M372 530v-122q-62 -1 -109.5 -24.5t-68.5 -66.5v-317h-134v524h123v-112q27 54 71 87t91 33q15 0 27 -2z" />
    <glyph glyph-name="s" unicode="s" horiz-adv-x="508" 
d="M267 -10q-66 0 -135 19t-115 51l54 91q100 -65 193 -65q42 0 66 15t24 43q0 26 -26.5 40t-97.5 31q-105 24 -146 55.5t-41 90.5q0 79 59.5 126t151.5 47q111 0 215 -65l-55 -83q-83 53 -161 53q-38 0 -61.5 -15t-23.5 -44q0 -26 21.5 -38t85.5 -28q116 -28 162.5 -61
t46.5 -97q0 -76 -59 -121t-158 -45z" />
    <glyph glyph-name="t" unicode="t" horiz-adv-x="382" 
d="M348 133l27 -106q-81 -36 -149 -36q-60 0 -98 31.5t-38 97.5v301h-68v103h68v170h134v-170h111v-103h-111v-256q0 -51 51 -51q30 0 73 19z" />
    <glyph glyph-name="u" unicode="u" horiz-adv-x="622" 
d="M220 -10q-81 0 -123 52.5t-42 153.5v328h134v-299q0 -121 87 -121q41 0 77 24t59 71v325h134v-370q0 -21 8 -30t28 -10v-114q-39 -7 -65 -7q-72 0 -82 62l-3 43q-72 -108 -212 -108z" />
    <glyph glyph-name="v" unicode="v" horiz-adv-x="543" 
d="M344 0h-145l-193 524h138l133 -415l134 415h126z" />
    <glyph glyph-name="w" unicode="w" horiz-adv-x="845" 
d="M558 126l155 398h128l-219 -524h-110l-90 230l-89 -230h-110l-219 524h127l156 -398l64 170l-92 227h108l55 -161l56 161h108l-91 -227z" />
    <glyph glyph-name="x" unicode="x" horiz-adv-x="528" 
d="M5 524h138l112 -164l9 -18l9 18l112 164h138l-186 -263l189 -261h-138l-115 163l-9 17l-9 -17l-115 -163h-138l190 261z" />
    <glyph glyph-name="y" unicode="y" horiz-adv-x="544" 
d="M67 -218v116q31 -9 59 -9q27 0 44 22t38 89l-208 524h138l143 -408l126 408h126l-221 -628q-21 -59 -67 -92t-107 -33q-35 0 -71 11z" />
    <glyph glyph-name="z" unicode="z" horiz-adv-x="490" 
d="M25 0v82l291 348h-280v94h421v-82l-290 -348h295v-94h-437z" />
    <glyph glyph-name="braceleft" unicode="{" horiz-adv-x="306" 
d="M265 633h-55v-204q0 -37 -35 -69q35 -32 35 -69v-215h55v-107h-153q-23 0 -23 30v248q0 25 -15 44t-35 23v94q20 0 35 21.5t15 43.5v237q0 16 7.5 23t15.5 7h153v-107z" />
    <glyph glyph-name="bar" unicode="|" 
d="M183 -130h-114v905h114v-905z" />
    <glyph glyph-name="braceright" unicode="}" horiz-adv-x="306" 
d="M97 633h-55v107h153q5 0 9.5 -2t9 -9.5t4.5 -18.5v-237q0 -22 15 -43.5t35 -21.5v-94q-21 -4 -35.5 -22.5t-14.5 -44.5v-248q0 -16 -7.5 -23t-15.5 -7h-153v107h55v215q0 39 35 69q-35 32 -35 69v204z" />
    <glyph glyph-name="asciitilde" unicode="~" horiz-adv-x="562" 
d="M54 228q0 11 7.5 30.5t22 43.5t43.5 41t66 17q38 0 93 -27t83 -27q25 0 42 12.5t22 23.5t5 16h74q0 -8 -7.5 -26.5t-22.5 -43t-45.5 -42.5t-68.5 -18t-93.5 26t-82.5 26q-24 0 -40 -13.5t-20 -24t-4 -14.5h-74z" />
    <glyph glyph-name="uni00A0" unicode="&#xa0;" horiz-adv-x="239" 
 />
    <glyph glyph-name="exclamdown" unicode="&#xa1;" horiz-adv-x="290" 
d="M78 445h134v-450h-134v450zM78 712h134v-151h-134v151z" />
    <glyph glyph-name="cent" unicode="&#xa2;" horiz-adv-x="595" 
d="M338 -120h-60v111q-101 8 -169 88.5t-68 178.5q0 105 63 181.5t174 92.5v113h60v-113q71 -2 127.5 -36.5t88.5 -96.5l-130 -40q-28 51 -86 56v-308q29 5 54.5 21t33.5 38l131 -40q-27 -63 -93.5 -99.5t-125.5 -36.5v-110zM179 258q0 -50 27 -90.5t72 -54.5v296
q-45 -9 -72 -52.5t-27 -98.5z" />
    <glyph glyph-name="sterling" unicode="&#xa3;" horiz-adv-x="547" 
d="M56 280v101h72q-3 6 -14 29t-15.5 33t-11.5 28.5t-9.5 34t-2.5 31.5q0 74 60 126t146 52q60 0 115 -28t92 -77l-70 -82q-25 35 -63.5 56.5t-75.5 21.5t-60.5 -23.5t-23.5 -58.5q0 -21 8 -42.5t24 -53t23 -47.5h184v-102h-161q0 -86 -85 -175q37 12 75 12q25 0 69.5 -8.5
t66.5 -8.5q33 0 75 16l33 -100q-53 -30 -115 -30q-30 0 -91.5 14.5t-93.5 14.5q-56 0 -127 -22l-30 95q107 89 107 193h-101z" />
    <glyph glyph-name="yen" unicode="&#xa5;" horiz-adv-x="713" 
d="M682 710l-176 -308h73v-87h-120l-36 -67v-30h157v-87h-157v-131h-137v131h-155v87h155v32l-34 65h-120v87h74l-176 308h149l176 -342l177 342h150z" />
    <glyph glyph-name="brokenbar" unicode="&#xa6;" horiz-adv-x="257" 
d="M71 264h114v-394h-114v394zM71 775h114v-394h-114v394z" />
    <glyph glyph-name="section" unicode="&#xa7;" horiz-adv-x="533" 
d="M456 215q35 -32 35 -102q0 -52 -21.5 -92.5t-55.5 -63t-71 -34t-74 -11.5q-70 0 -126 32.5t-90 71.5l86 82q56 -59 124 -59q36 0 62.5 19t26.5 50q0 22 -13.5 34.5t-28.5 16t-38 4.5q-98 7 -152.5 54t-54.5 124q0 39 19 74q-41 39 -41 110q0 78 62 134t149 56
q127 0 212 -123l-103 -49q-28 53 -101 53q-37 0 -60.5 -19t-23.5 -50q0 -60 84 -62q40 -1 76 -10.5t68.5 -28t51.5 -52t19 -77.5q0 -55 -21 -82zM195 323q0 -35 23 -49t63.5 -18t50.5 -8q18 16 18 45q0 33 -25.5 48.5t-57.5 15.5q-31 0 -56 9q-16 -16 -16 -43z" />
    <glyph glyph-name="dieresis" unicode="&#xa8;" horiz-adv-x="457" 
d="M188 604h-111v119h111v-119zM380 604h-111v119h111v-119z" />
    <glyph glyph-name="copyright" unicode="&#xa9;" horiz-adv-x="843" 
d="M418 -7q-161 0 -267.5 103.5t-106.5 258.5t106.5 257.5t267.5 102.5q164 0 273 -102.5t109 -257.5t-109 -258.5t-273 -103.5zM418 43q140 0 233.5 87.5t93.5 223.5q0 132 -93.5 221.5t-233.5 89.5q-137 0 -228.5 -89.5t-91.5 -221.5t91.5 -221.5t228.5 -89.5zM427 116
q-111 0 -181.5 68.5t-70.5 170.5q0 98 66 168t184 70q78 0 136 -34t85 -94l-130 -40q-26 54 -92 54q-51 0 -81.5 -36t-30.5 -88q0 -57 34.5 -91t78.5 -34q29 0 55 15t40 41l130 -39q-25 -55 -84 -93t-139 -38z" />
    <glyph glyph-name="ordfeminine" unicode="&#xaa;" horiz-adv-x="444" 
d="M160 339q-51 0 -85.5 32.5t-34.5 81.5q0 52 42 85.5t107 33.5q49 0 84 -16v19q0 70 -75 70q-52 0 -110 -40l-30 61q69 47 149 47q78 0 120.5 -38.5t42.5 -111.5v-104q0 -28 26 -29v-85q-24 -4 -47 -4q-51 1 -59 44l-2 19q-50 -65 -128 -65zM189 411q45 0 70 27
q14 12 14 26v39q-30 12 -67 12q-33 0 -53.5 -14.5t-20.5 -38.5q0 -22 16.5 -36.5t40.5 -14.5z" />
    <glyph glyph-name="guillemotleft" unicode="&#xab;" horiz-adv-x="649" 
d="M37 223v65l263 189v-109l-157 -109l157 -103v-110zM328 223v65l264 189v-109l-158 -109l158 -103v-110z" />
    <glyph glyph-name="logicalnot" unicode="&#xac;" horiz-adv-x="615" 
d="M63 400h488v-294h-114v174h-374v120z" />
    <glyph glyph-name="uni00AD" unicode="&#xad;" horiz-adv-x="602" 
d="M545 214h-488v121h488v-121z" />
    <glyph glyph-name="registered" unicode="&#xae;" horiz-adv-x="843" 
d="M420 -7q-162 0 -269 103t-107 259q0 155 107 257.5t269 102.5q163 0 271.5 -103t108.5 -257q0 -155 -108.5 -258.5t-271.5 -103.5zM420 42q138 0 230.5 88t92.5 223q0 133 -92 222.5t-231 89.5q-138 0 -229 -89t-91 -221q0 -133 91 -223t229 -90zM258 136v440h195
q59 0 99.5 -45.5t40.5 -101.5q0 -42 -22 -77.5t-58 -49.5l103 -166h-107l-92 148h-64v-148h-95zM353 366h92q25 0 40 16.5t15 46.5t-16.5 46.5t-40.5 16.5h-90v-126z" />
    <glyph glyph-name="macron" unicode="&#xaf;" horiz-adv-x="419" 
d="M360 633h-300v83h300v-83z" />
    <glyph glyph-name="degree" unicode="&#xb0;" horiz-adv-x="287" 
d="M41 625q0 42 29 70.5t73 28.5q45 0 74 -28.5t29 -70.5q0 -48 -29 -77t-74 -29q-44 0 -73 30t-29 76zM143 659q-15 0 -26 -11t-11 -27q0 -15 11 -26t26 -11t26 11t11 26q0 17 -10.5 27.5t-26.5 10.5z" />
    <glyph glyph-name="plusminus" unicode="&#xb1;" horiz-adv-x="472" 
d="M412 28h-353v108h353v-108zM296 430h117v-107h-117v-127h-120v127h-117v107h117v127h120v-127z" />
    <glyph glyph-name="twosuperior" unicode="&#xb2;" horiz-adv-x="417" 
d="M371 305h-340q0 81 28.5 124.5t101.5 73.5q9 4 31 12.5t32 12.5t26 13t23.5 16t13.5 18t6 24q0 55 -85 55q-71 0 -124 -49l-50 57q19 25 68 47t117 22q79 0 121.5 -35t42.5 -98q0 -31 -12.5 -55t-34.5 -39t-41 -23.5t-44 -16.5q-91 -28 -91 -81h211v-78z" />
    <glyph glyph-name="threesuperior" unicode="&#xb3;" horiz-adv-x="408" 
d="M193 298q-63 0 -106.5 20.5t-57.5 58.5l43 59q5 -17 37.5 -37t81.5 -20q44 0 73.5 13.5t29.5 37.5q0 56 -149 56h-24v73h24q134 0 134 52q0 22 -26 34t-59 12q-72 0 -113 -49l-51 64q22 28 67 43.5t97 15.5q73 0 121.5 -33t48.5 -83q0 -35 -25 -58t-70 -31
q48 -7 76.5 -37t28.5 -71q0 -58 -53 -89t-128 -31z" />
    <glyph glyph-name="acute" unicode="&#xb4;" horiz-adv-x="255" 
d="M226 730l-93 -145l-86 26l54 119h125z" />
    <glyph glyph-name="mu" unicode="&#xb5;" horiz-adv-x="637" 
d="M70 -212v736h134v-299q0 -121 90 -121q39 0 75 24.5t58 70.5v325h134v-370q0 -21 8 -30t28 -10v-114q-34 -6 -65 -6q-72 0 -83 61l-2 43q-19 -40 -66 -74t-95 -34q-36 0 -59.5 18.5t-30.5 40.5l9 -261h-135z" />
    <glyph glyph-name="paragraph" unicode="&#xb6;" horiz-adv-x="652" 
d="M35 456q0 121 74 187.5t208 66.5h295v-100h-70v-690h-114v288h-51v-288h-114v288q-103 1 -165.5 68.5t-62.5 179.5zM147 459q0 -66 33 -106t83 -45v302q-54 -3 -85 -43.5t-31 -107.5zM428 308v302h-51v-302h51z" />
    <glyph glyph-name="periodcentered" unicode="&#xb7;" horiz-adv-x="224" 
d="M167 242h-110v151h110v-151z" />
    <glyph glyph-name="cedilla" unicode="&#xb8;" horiz-adv-x="326" 
d="M21 -176l27 49q34 -19 89 -19q56 0 56 33t-52 33q-32 0 -80 -12l61 120l52 -16l-35 -54q12 4 32 4q38 0 61.5 -17.5t23.5 -52.5q0 -40 -33 -64t-95 -24q-58 0 -107 20z" />
    <glyph glyph-name="onesuperior" unicode="&#xb9;" horiz-adv-x="298" 
d="M206 384h71v-78h-229v78h78v261q-12 -15 -42.5 -33t-51.5 -18v80q18 0 41.5 14t37.5 27t15 16h80v-347z" />
    <glyph glyph-name="ordmasculine" unicode="&#xba;" horiz-adv-x="443" 
d="M221 339q-85 0 -135.5 54.5t-50.5 132.5q0 79 51 133t135 54q85 0 135.5 -54t50.5 -133q0 -78 -50.5 -132.5t-135.5 -54.5zM135 525q0 -44 24.5 -73t61.5 -29t62 29t25 74t-25 73.5t-62 28.5t-61.5 -29t-24.5 -74z" />
    <glyph glyph-name="guillemotright" unicode="&#xbb;" horiz-adv-x="649" 
d="M612 288v-65l-264 -177v110l158 103l-158 109v109zM321 288v-65l-264 -177v110l158 103l-158 109v109z" />
    <glyph glyph-name="onequarter" unicode="&#xbc;" horiz-adv-x="931" 
d="M833 0h-79v93h-221v77l246 252h54v-251h61v-78h-61v-93zM757 324l-147 -153h147v153zM216 384h71v-78h-229v78h78v261q-12 -15 -42.5 -33t-51.5 -18v80q18 0 41.5 14t37.5 27t15 16h80v-347zM236 -7l-61 54l282 329l260 342l61 -54l-276 -322z" />
    <glyph glyph-name="onehalf" unicode="&#xbd;" horiz-adv-x="958" 
d="M919 0h-333q0 81 27.5 124.5t96.5 73.5l28 12t30 13t24.5 12.5t22 16t12.5 18.5t6 24q0 55 -81 55q-67 0 -115 -50l-48 58q19 25 65.5 47t109.5 22q74 0 114 -35t40 -98q0 -31 -11.5 -55t-33 -39t-38.5 -23t-41 -16q-86 -29 -86 -82h211v-78zM217 384h71v-78h-229v78h78
v261q-12 -15 -42.5 -33t-51.5 -18v80q18 0 41.5 14t37.5 27t15 16h80v-347zM199 -7l-61 54l282 329l260 342l61 -54l-276 -322z" />
    <glyph glyph-name="threequarters" unicode="&#xbe;" horiz-adv-x="945" 
d="M204 298q-63 0 -106.5 20.5t-57.5 58.5l43 59q5 -17 37.5 -37t81.5 -20q44 0 73.5 13.5t29.5 37.5q0 56 -149 56h-24v73h24q134 0 134 52q0 22 -26 34t-59 12q-72 0 -113 -49l-51 64q22 28 67 43.5t97 15.5q73 0 121.5 -33t48.5 -83q0 -35 -25 -58t-70 -31
q48 -7 76.5 -37t28.5 -71q0 -58 -53 -89t-128 -31zM843 0h-79v93h-221v77l246 252h54v-251h61v-78h-61v-93zM767 324l-147 -153h147v153zM269 -7l-61 54l282 329l260 342l61 -54l-276 -322z" />
    <glyph glyph-name="questiondown" unicode="&#xbf;" horiz-adv-x="483" 
d="M253 273h110q0 -54 -17.5 -91.5t-64.5 -64.5q-4 -2 -28 -15t-36.5 -22t-30.5 -24.5t-26.5 -34t-8.5 -39.5q0 -39 28 -62.5t67 -23.5q71 0 118 80l87 -60q-26 -60 -82.5 -94.5t-126.5 -34.5q-85 0 -146.5 50t-61.5 147q0 60 26.5 98t78.5 70q9 6 31.5 18.5t32.5 19.5
t24 20t20 28t6 35zM250 506h111v-138h-111v138z" />
    <glyph glyph-name="Agrave" unicode="&#xc0;" horiz-adv-x="675" 
d="M148 0h-146l280 710h112l279 -710h-146l-65 177h-249zM437 274l-99 287l-102 -287h201zM304 771l-93 145h124l55 -119z" />
    <glyph glyph-name="Aacute" unicode="&#xc1;" horiz-adv-x="675" 
d="M148 0h-146l280 710h112l279 -710h-146l-65 177h-249zM437 274l-99 287l-102 -287h201zM466 915l-93 -145l-86 26l54 119h125z" />
    <glyph glyph-name="Acircumflex" unicode="&#xc2;" horiz-adv-x="675" 
d="M148 0h-146l280 710h112l279 -710h-146l-65 177h-249zM437 274l-99 287l-102 -287h201zM254 782l-70 32l106 101h97l106 -101l-69 -32l-85 63z" />
    <glyph glyph-name="Atilde" unicode="&#xc3;" horiz-adv-x="675" 
d="M148 0h-146l280 710h112l279 -710h-146l-65 177h-249zM437 274l-99 287l-102 -287h201zM401 787q-32 0 -71.5 22.5t-59.5 22.5t-32 -12.5t-14 -21t-2 -14.5h-74q0 17 10 44.5t38.5 55.5t68.5 28q32 0 71 -23.5t61 -23.5q21 0 34.5 12.5t16 22t2.5 15.5h74q0 -9 -6.5 -28
t-19.5 -42.5t-39 -40.5t-58 -17z" />
    <glyph glyph-name="Adieresis" unicode="&#xc4;" horiz-adv-x="675" 
d="M148 0h-146l280 710h112l279 -710h-146l-65 177h-249zM437 274l-99 287l-102 -287h201zM298 790h-111v119h111v-119zM490 790h-111v119h111v-119z" />
    <glyph glyph-name="Aring" unicode="&#xc5;" horiz-adv-x="675" 
d="M148 0h-146l280 710h112l279 -710h-146l-65 177h-249zM437 274l-99 287l-102 -287h201zM241 838q0 36 26.5 56.5t70.5 20.5t70.5 -20.5t26.5 -56.5t-26.5 -56.5t-70.5 -20.5t-70.5 20.5t-26.5 56.5zM338 874q-17 0 -28.5 -10t-11.5 -26q0 -15 11.5 -25.5t28.5 -10.5
q16 0 28.5 10.5t12.5 25.5q0 16 -11.5 26t-29.5 10z" />
    <glyph glyph-name="AE" unicode="&#xc6;" horiz-adv-x="981" 
d="M-14 0l444 710h505v-121h-333v-167h279v-121h-279v-180h342v-121h-478v177h-228l-105 -177h-147zM297 297h159v258z" />
    <glyph glyph-name="Ccedilla" unicode="&#xc7;" horiz-adv-x="671" 
d="M262 -176l27 49q34 -19 89 -19q56 0 56 33t-52 33q-32 0 -80 -12l44 87q-89 6 -162 61t-112 136t-39 168q0 89 39 168.5t118.5 132.5t182.5 53q92 0 162.5 -42t104.5 -113l-106 -73q-23 55 -68.5 80.5t-96.5 25.5q-92 0 -144.5 -71.5t-52.5 -164.5q0 -97 57 -168.5
t143 -71.5q51 0 97.5 27t68.5 81l113 -65q-28 -68 -97 -111t-150 -52l-24 -38q12 4 32 4q38 0 61.5 -17.5t23.5 -52.5q0 -40 -33 -64t-95 -24q-58 0 -107 20z" />
    <glyph glyph-name="Egrave" unicode="&#xc8;" horiz-adv-x="604" 
d="M212 121h355v-121h-493v710h484v-121h-346v-171h299v-112h-299v-185zM291 771l-93 145h124l55 -119z" />
    <glyph glyph-name="Eacute" unicode="&#xc9;" horiz-adv-x="604" 
d="M454 915l-93 -145l-86 26l54 119h125zM212 121h355v-121h-493v710h484v-121h-346v-171h299v-112h-299v-185z" />
    <glyph glyph-name="Ecircumflex" unicode="&#xca;" horiz-adv-x="604" 
d="M241 782l-70 32l106 101h97l106 -101l-69 -32l-85 63zM212 121h355v-121h-493v710h484v-121h-346v-171h299v-112h-299v-185z" />
    <glyph glyph-name="Edieresis" unicode="&#xcb;" horiz-adv-x="604" 
d="M285 790h-111v119h111v-119zM477 790h-111v119h111v-119zM212 121h355v-121h-493v710h484v-121h-346v-171h299v-112h-299v-185z" />
    <glyph glyph-name="Igrave" unicode="&#xcc;" horiz-adv-x="286" 
d="M212 0h-138v709h138v-709zM108 771l-93 145h124l55 -119z" />
    <glyph glyph-name="Iacute" unicode="&#xcd;" horiz-adv-x="286" 
d="M212 0h-138v709h138v-709zM270 915l-93 -145l-86 26l54 119h125z" />
    <glyph glyph-name="Icircumflex" unicode="&#xce;" horiz-adv-x="286" 
d="M212 0h-138v709h138v-709zM58 782l-70 32l106 101h97l106 -101l-69 -32l-85 63z" />
    <glyph glyph-name="Idieresis" unicode="&#xcf;" horiz-adv-x="286" 
d="M212 0h-138v709h138v-709zM102 790h-111v119h111v-119zM294 790h-111v119h111v-119z" />
    <glyph glyph-name="Eth" unicode="&#xd0;" horiz-adv-x="722" 
d="M337 0h-258v307h-48v100h48v303h258q167 0 258.5 -100t91.5 -254q0 -162 -95.5 -259t-254.5 -97zM548 356q0 105 -56 169t-155 64h-120v-182h139v-100h-139v-186h120q99 0 155 65.5t56 169.5z" />
    <glyph glyph-name="Ntilde" unicode="&#xd1;" horiz-adv-x="763" 
d="M577 0l-365 455v-455h-138v710h107l370 -466v465h138v-709h-112zM444 787q-32 0 -71.5 22.5t-59.5 22.5t-32 -12.5t-14 -21t-2 -14.5h-74q0 17 10 44.5t38.5 55.5t68.5 28q32 0 71 -23.5t61 -23.5q21 0 34.5 12.5t16 22t2.5 15.5h74q0 -9 -6.5 -28t-19.5 -42.5t-39 -40.5
t-58 -17z" />
    <glyph glyph-name="Ograve" unicode="&#xd2;" horiz-adv-x="740" 
d="M369 -5q-97 0 -175.5 52.5t-119.5 134t-41 173.5q0 145 98 252.5t241 107.5q97 0 175 -53.5t119 -135.5t41 -173q0 -144 -97 -251t-241 -107zM172 355q0 -97 54.5 -167.5t144.5 -70.5t143.5 72t53.5 166q0 96 -55 166.5t-143 70.5q-90 0 -144 -71.5t-54 -165.5zM337 771
l-93 145h124l55 -119z" />
    <glyph glyph-name="Oacute" unicode="&#xd3;" horiz-adv-x="740" 
d="M500 915l-93 -145l-86 26l54 119h125zM369 -5q-97 0 -175.5 52.5t-119.5 134t-41 173.5q0 145 98 252.5t241 107.5q97 0 175 -53.5t119 -135.5t41 -173q0 -144 -97 -251t-241 -107zM172 355q0 -97 54.5 -167.5t144.5 -70.5t143.5 72t53.5 166q0 96 -55 166.5t-143 70.5
q-90 0 -144 -71.5t-54 -165.5z" />
    <glyph glyph-name="Ocircumflex" unicode="&#xd4;" horiz-adv-x="740" 
d="M288 782l-70 32l106 101h97l106 -101l-69 -32l-85 63zM369 -5q-97 0 -175.5 52.5t-119.5 134t-41 173.5q0 145 98 252.5t241 107.5q97 0 175 -53.5t119 -135.5t41 -173q0 -144 -97 -251t-241 -107zM172 355q0 -97 54.5 -167.5t144.5 -70.5t143.5 72t53.5 166
q0 96 -55 166.5t-143 70.5q-90 0 -144 -71.5t-54 -165.5z" />
    <glyph glyph-name="Otilde" unicode="&#xd5;" horiz-adv-x="740" 
d="M369 -5q-97 0 -175.5 52.5t-119.5 134t-41 173.5q0 145 98 252.5t241 107.5q97 0 175 -53.5t119 -135.5t41 -173q0 -144 -97 -251t-241 -107zM172 355q0 -97 54.5 -167.5t144.5 -70.5t143.5 72t53.5 166q0 96 -55 166.5t-143 70.5q-90 0 -144 -71.5t-54 -165.5zM435 787
q-32 0 -71.5 22.5t-59.5 22.5t-32 -12.5t-14 -21t-2 -14.5h-74q0 17 10 44.5t38.5 55.5t68.5 28q32 0 71 -23.5t61 -23.5q21 0 34.5 12.5t16 22t2.5 15.5h74q0 -9 -6.5 -28t-19.5 -42.5t-39 -40.5t-58 -17z" />
    <glyph glyph-name="Odieresis" unicode="&#xd6;" horiz-adv-x="740" 
d="M331 790h-111v119h111v-119zM523 790h-111v119h111v-119zM369 -5q-97 0 -175.5 52.5t-119.5 134t-41 173.5q0 145 98 252.5t241 107.5q97 0 175 -53.5t119 -135.5t41 -173q0 -144 -97 -251t-241 -107zM172 355q0 -97 54.5 -167.5t144.5 -70.5t143.5 72t53.5 166
q0 96 -55 166.5t-143 70.5q-90 0 -144 -71.5t-54 -165.5z" />
    <glyph glyph-name="multiply" unicode="&#xd7;" horiz-adv-x="478" 
d="M322 275l104 -103l-85 -83l-103 103l-103 -103l-82 84l101 102l-98 99l85 83l98 -98l99 99l82 -84z" />
    <glyph glyph-name="Oslash" unicode="&#xd8;" horiz-adv-x="742" 
d="M544 710h149l-77 -110q91 -107 91 -247q0 -144 -97 -251t-241 -107q-82 0 -150 37l-22 -32h-148l75 108q-91 105 -91 247q0 145 98 252.5t241 107.5q79 0 149 -38zM172 355q0 -74 32 -133l245 352q-38 18 -79 18q-90 0 -144 -71.5t-54 -165.5zM568 355q0 72 -32 131
l-245 -352q36 -17 80 -17q90 0 143.5 72t53.5 166z" />
    <glyph glyph-name="Ugrave" unicode="&#xd9;" horiz-adv-x="748" 
d="M373 117q63 0 103.5 35t55.5 84t15 112v362h137v-362q0 -156 -77 -254.5t-233 -98.5q-82 0 -144 29t-97.5 79t-52.5 111.5t-17 133.5v362h138v-362q0 -100 41 -165.5t131 -65.5zM339 771l-93 145h124l55 -119z" />
    <glyph glyph-name="Uacute" unicode="&#xda;" horiz-adv-x="748" 
d="M502 915l-93 -145l-86 26l54 119h125zM373 117q63 0 103.5 35t55.5 84t15 112v362h137v-362q0 -156 -77 -254.5t-233 -98.5q-82 0 -144 29t-97.5 79t-52.5 111.5t-17 133.5v362h138v-362q0 -100 41 -165.5t131 -65.5z" />
    <glyph glyph-name="Ucircumflex" unicode="&#xdb;" horiz-adv-x="748" 
d="M289 782l-70 32l106 101h97l106 -101l-69 -32l-85 63zM373 117q63 0 103.5 35t55.5 84t15 112v362h137v-362q0 -156 -77 -254.5t-233 -98.5q-82 0 -144 29t-97.5 79t-52.5 111.5t-17 133.5v362h138v-362q0 -100 41 -165.5t131 -65.5z" />
    <glyph glyph-name="Udieresis" unicode="&#xdc;" horiz-adv-x="748" 
d="M333 790h-111v119h111v-119zM525 790h-111v119h111v-119zM373 117q63 0 103.5 35t55.5 84t15 112v362h137v-362q0 -156 -77 -254.5t-233 -98.5q-82 0 -144 29t-97.5 79t-52.5 111.5t-17 133.5v362h138v-362q0 -100 41 -165.5t131 -65.5z" />
    <glyph glyph-name="Yacute" unicode="&#xdd;" horiz-adv-x="644" 
d="M-4 710h150l175 -342l178 342h149l-258 -462v-248h-137v250zM449 915l-93 -145l-86 26l54 119h125z" />
    <glyph glyph-name="Thorn" unicode="&#xde;" horiz-adv-x="606" 
d="M358 582q95 0 160.5 -72.5t65.5 -163.5q0 -95 -62.5 -165.5t-157.5 -70.5h-152v-110h-138v710h138v-128h146zM357 231q39 0 64.5 33.5t25.5 81.5t-29 81.5t-67 33.5h-139v-230h145z" />
    <glyph glyph-name="germandbls" unicode="&#xdf;" horiz-adv-x="558" 
d="M246 -6v123q65 1 103.5 28t38.5 80q0 50 -33.5 79t-80.5 29h-20v120h19q36 0 56.5 20.5t20.5 53.5q0 38 -24.5 55.5t-54.5 17.5q-44 0 -64 -30.5t-20 -70.5v-499h-127v522q0 84 63 138t158 54q86 0 141 -45t55 -119q0 -51 -25.5 -93t-61.5 -55q65 -18 102 -69t37 -123
q0 -55 -23 -97.5t-63 -67t-89.5 -37.5t-107.5 -14z" />
    <glyph glyph-name="agrave" unicode="&#xe0;" horiz-adv-x="578" 
d="M204 -10q-77 0 -128 47.5t-51 118.5q0 75 62.5 122t160.5 47q76 0 128 -23v30q0 52 -30 80t-87 28q-79 0 -164 -59l-41 85q101 67 218 67q113 0 175.5 -56t62.5 -160v-163q0 -39 36 -40v-114q-35 -7 -64 -7q-72 1 -83 62l-3 29q-72 -94 -192 -94zM242 88q75 0 112 44
q22 17 22 38v60q-53 20 -106 20q-52 0 -85 -23.5t-33 -59.5q0 -34 26 -56.5t64 -22.5zM238 585l-93 145h124l55 -119z" />
    <glyph glyph-name="aacute" unicode="&#xe1;" horiz-adv-x="578" 
d="M204 -10q-77 0 -128 47.5t-51 118.5q0 75 62.5 122t160.5 47q76 0 128 -23v30q0 52 -30 80t-87 28q-79 0 -164 -59l-41 85q101 67 218 67q113 0 175.5 -56t62.5 -160v-163q0 -39 36 -40v-114q-35 -7 -64 -7q-72 1 -83 62l-3 29q-72 -94 -192 -94zM242 88q75 0 112 44
q22 17 22 38v60q-53 20 -106 20q-52 0 -85 -23.5t-33 -59.5q0 -34 26 -56.5t64 -22.5zM400 730l-93 -145l-86 26l54 119h125z" />
    <glyph glyph-name="acircumflex" unicode="&#xe2;" horiz-adv-x="578" 
d="M204 -10q-77 0 -128 47.5t-51 118.5q0 75 62.5 122t160.5 47q76 0 128 -23v30q0 52 -30 80t-87 28q-79 0 -164 -59l-41 85q101 67 218 67q113 0 175.5 -56t62.5 -160v-163q0 -39 36 -40v-114q-35 -7 -64 -7q-72 1 -83 62l-3 29q-72 -94 -192 -94zM242 88q75 0 112 44
q22 17 22 38v60q-53 20 -106 20q-52 0 -85 -23.5t-33 -59.5q0 -34 26 -56.5t64 -22.5zM188 597l-70 32l106 101h97l106 -101l-69 -32l-85 63z" />
    <glyph glyph-name="atilde" unicode="&#xe3;" horiz-adv-x="578" 
d="M204 -10q-77 0 -128 47.5t-51 118.5q0 75 62.5 122t160.5 47q76 0 128 -23v30q0 52 -30 80t-87 28q-79 0 -164 -59l-41 85q101 67 218 67q113 0 175.5 -56t62.5 -160v-163q0 -39 36 -40v-114q-35 -7 -64 -7q-72 1 -83 62l-3 29q-72 -94 -192 -94zM242 88q75 0 112 44
q22 17 22 38v60q-53 20 -106 20q-52 0 -85 -23.5t-33 -59.5q0 -34 26 -56.5t64 -22.5zM335 602q-32 0 -71.5 22.5t-59.5 22.5t-32 -12.5t-14 -21t-2 -14.5h-74q0 17 10 44.5t38.5 55.5t68.5 28q32 0 71 -23.5t61 -23.5q21 0 34.5 12.5t16 22t2.5 15.5h74q0 -9 -6.5 -28
t-19.5 -42.5t-39 -40.5t-58 -17z" />
    <glyph glyph-name="adieresis" unicode="&#xe4;" horiz-adv-x="578" 
d="M204 -10q-77 0 -128 47.5t-51 118.5q0 75 62.5 122t160.5 47q76 0 128 -23v30q0 52 -30 80t-87 28q-79 0 -164 -59l-41 85q101 67 218 67q113 0 175.5 -56t62.5 -160v-163q0 -39 36 -40v-114q-35 -7 -64 -7q-72 1 -83 62l-3 29q-72 -94 -192 -94zM242 88q75 0 112 44
q22 17 22 38v60q-53 20 -106 20q-52 0 -85 -23.5t-33 -59.5q0 -34 26 -56.5t64 -22.5zM232 604h-111v119h111v-119zM424 604h-111v119h111v-119z" />
    <glyph glyph-name="aring" unicode="&#xe5;" horiz-adv-x="578" 
d="M204 -10q-77 0 -128 47.5t-51 118.5q0 75 62.5 122t160.5 47q76 0 128 -23v30q0 52 -30 80t-87 28q-79 0 -164 -59l-41 85q101 67 218 67q113 0 175.5 -56t62.5 -160v-163q0 -39 36 -40v-114q-35 -7 -64 -7q-72 1 -83 62l-3 29q-72 -94 -192 -94zM242 88q75 0 112 44
q22 17 22 38v60q-53 20 -106 20q-52 0 -85 -23.5t-33 -59.5q0 -34 26 -56.5t64 -22.5zM175 653q0 36 26.5 56.5t70.5 20.5t70.5 -20.5t26.5 -56.5t-26.5 -56.5t-70.5 -20.5t-70.5 20.5t-26.5 56.5zM272 689q-17 0 -28.5 -10t-11.5 -26q0 -15 11.5 -25.5t28.5 -10.5
q16 0 28.5 10.5t12.5 25.5q0 16 -11.5 26t-29.5 10z" />
    <glyph glyph-name="ae" unicode="&#xe6;" horiz-adv-x="938" 
d="M205 -10q-77 0 -128 47.5t-51 118.5q0 75 62.5 122t160.5 47q69 0 118 -20q2 29 8 44q-9 91 -115 91q-79 0 -165 -59l-40 85q101 67 218 67q122 0 183 -74q72 74 186 74q124 0 199 -78.5t76 -192.5q0 -26 -3 -43h-410q4 -60 45.5 -95.5t98.5 -35.5q41 0 76.5 19.5
t47.5 51.5l115 -32q-29 -62 -94 -99.5t-150 -37.5q-72 0 -130.5 29t-93.5 79q-34 -53 -94 -80.5t-120 -27.5zM243 88q74 0 113 44q21 18 21 36q-6 12 -10 65q-49 17 -96 17q-52 0 -85.5 -23.5t-33.5 -59.5q0 -34 26.5 -56.5t64.5 -22.5zM502 302h277q-5 60 -43.5 97
t-95.5 37t-95.5 -37t-42.5 -97z" />
    <glyph glyph-name="ccedilla" unicode="&#xe7;" horiz-adv-x="566" 
d="M199 -176l27 49q34 -19 89 -19q56 0 56 33t-52 33q-32 0 -80 -12l42 83q-114 9 -183 86.5t-69 184.5q0 113 76 192t200 79q83 0 144.5 -36t92.5 -98l-131 -40q-35 60 -107 60q-58 0 -97.5 -44t-39.5 -113q0 -68 40 -113t97 -45q36 0 66.5 17.5t42.5 44.5l131 -40
q-25 -55 -79 -91t-127 -43l-21 -34q12 4 32 4q38 0 61.5 -17.5t23.5 -52.5q0 -40 -33 -64t-95 -24q-58 0 -107 20z" />
    <glyph glyph-name="egrave" unicode="&#xe8;" horiz-adv-x="600" 
d="M304 -10q-123 0 -199.5 78.5t-76.5 190.5q0 115 76 194.5t201 79.5q124 0 198.5 -79t74.5 -190q0 -28 -3 -45h-405q5 -60 45 -95.5t94 -35.5q41 0 76.5 19.5t47.5 51.5l115 -32q-29 -62 -94 -99.5t-150 -37.5zM168 306h272q-5 58 -43.5 94t-93.5 36t-93 -36t-42 -94z
M268 585l-93 145h124l55 -119z" />
    <glyph glyph-name="eacute" unicode="&#xe9;" horiz-adv-x="600" 
d="M430 730l-93 -145l-86 26l54 119h125zM304 -10q-123 0 -199.5 78.5t-76.5 190.5q0 115 76 194.5t201 79.5q124 0 198.5 -79t74.5 -190q0 -28 -3 -45h-405q5 -60 45 -95.5t94 -35.5q41 0 76.5 19.5t47.5 51.5l115 -32q-29 -62 -94 -99.5t-150 -37.5zM168 306h272
q-5 58 -43.5 94t-93.5 36t-93 -36t-42 -94z" />
    <glyph glyph-name="ecircumflex" unicode="&#xea;" horiz-adv-x="600" 
d="M218 597l-70 32l106 101h97l106 -101l-69 -32l-85 63zM304 -10q-123 0 -199.5 78.5t-76.5 190.5q0 115 76 194.5t201 79.5q124 0 198.5 -79t74.5 -190q0 -28 -3 -45h-405q5 -60 45 -95.5t94 -35.5q41 0 76.5 19.5t47.5 51.5l115 -32q-29 -62 -94 -99.5t-150 -37.5z
M168 306h272q-5 58 -43.5 94t-93.5 36t-93 -36t-42 -94z" />
    <glyph glyph-name="edieresis" unicode="&#xeb;" horiz-adv-x="600" 
d="M262 604h-111v119h111v-119zM454 604h-111v119h111v-119zM304 -10q-123 0 -199.5 78.5t-76.5 190.5q0 115 76 194.5t201 79.5q124 0 198.5 -79t74.5 -190q0 -28 -3 -45h-405q5 -60 45 -95.5t94 -35.5q41 0 76.5 19.5t47.5 51.5l115 -32q-29 -62 -94 -99.5t-150 -37.5z
M168 306h272q-5 58 -43.5 94t-93.5 36t-93 -36t-42 -94z" />
    <glyph glyph-name="igrave" unicode="&#xec;" 
d="M194 0h-134v524h134v-524zM92 585l-93 145h124l55 -119z" />
    <glyph glyph-name="iacute" unicode="&#xed;" 
d="M254 730l-93 -145l-86 26l54 119h125zM194 0h-134v524h134v-524z" />
    <glyph glyph-name="icircumflex" unicode="&#xee;" 
d="M42 597l-70 32l106 101h97l106 -101l-69 -32l-85 63zM194 0h-134v524h134v-524z" />
    <glyph glyph-name="idieresis" unicode="&#xef;" 
d="M86 604h-111v119h111v-119zM278 604h-111v119h111v-119zM194 0h-134v524h134v-524z" />
    <glyph glyph-name="eth" unicode="&#xf0;" horiz-adv-x="613" 
d="M487 713l38 -53l-71 -39q62 -71 94 -158t32 -173q0 -137 -77.5 -218.5t-200.5 -81.5q-115 0 -193 69.5t-78 173.5q0 99 70.5 169t170.5 70q52 0 97.5 -21t73.5 -57q-23 103 -90 180l-94 -52l-38 52l84 47q-69 61 -160 109h172q50 -26 91 -63zM168 234q0 -55 39 -92.5
t97 -37.5q60 0 99.5 38.5t39.5 94.5q0 55 -39 91t-98 36t-98.5 -37t-39.5 -93z" />
    <glyph glyph-name="ntilde" unicode="&#xf1;" horiz-adv-x="602" 
d="M547 327v-327h-134v294q0 121 -83 121q-41 0 -81 -31.5t-55 -77.5v-306h-134v524h121v-97q29 50 84 78t124 28q158 0 158 -206zM378 602q-32 0 -71.5 22.5t-59.5 22.5t-32 -12.5t-14 -21t-2 -14.5h-74q0 17 10 44.5t38.5 55.5t68.5 28q32 0 71 -23.5t61 -23.5
q21 0 34.5 12.5t16 22t2.5 15.5h74q0 -9 -6.5 -28t-19.5 -42.5t-39 -40.5t-58 -17z" />
    <glyph glyph-name="ograve" unicode="&#xf2;" horiz-adv-x="605" 
d="M303 -10q-124 0 -199.5 79.5t-75.5 191.5q0 114 75.5 193t199.5 79t199 -79t75 -193q0 -113 -75 -192t-199 -79zM166 261q0 -68 39.5 -112.5t97.5 -44.5t97.5 45t39.5 113t-39.5 112.5t-97.5 44.5t-97.5 -45t-39.5 -113zM269 585l-93 145h124l55 -119z" />
    <glyph glyph-name="oacute" unicode="&#xf3;" horiz-adv-x="605" 
d="M430 730l-93 -145l-86 26l54 119h125zM303 -10q-124 0 -199.5 79.5t-75.5 191.5q0 114 75.5 193t199.5 79t199 -79t75 -193q0 -113 -75 -192t-199 -79zM166 261q0 -68 39.5 -112.5t97.5 -44.5t97.5 45t39.5 113t-39.5 112.5t-97.5 44.5t-97.5 -45t-39.5 -113z" />
    <glyph glyph-name="ocircumflex" unicode="&#xf4;" horiz-adv-x="605" 
d="M218 597l-70 32l106 101h97l106 -101l-69 -32l-85 63zM303 -10q-124 0 -199.5 79.5t-75.5 191.5q0 114 75.5 193t199.5 79t199 -79t75 -193q0 -113 -75 -192t-199 -79zM166 261q0 -68 39.5 -112.5t97.5 -44.5t97.5 45t39.5 113t-39.5 112.5t-97.5 44.5t-97.5 -45
t-39.5 -113z" />
    <glyph glyph-name="otilde" unicode="&#xf5;" horiz-adv-x="605" 
d="M303 -10q-124 0 -199.5 79.5t-75.5 191.5q0 114 75.5 193t199.5 79t199 -79t75 -193q0 -113 -75 -192t-199 -79zM166 261q0 -68 39.5 -112.5t97.5 -44.5t97.5 45t39.5 113t-39.5 112.5t-97.5 44.5t-97.5 -45t-39.5 -113zM366 602q-32 0 -71.5 22.5t-59.5 22.5t-32 -12.5
t-14 -21t-2 -14.5h-74q0 17 10 44.5t38.5 55.5t68.5 28q32 0 71 -23.5t61 -23.5q21 0 34.5 12.5t16 22t2.5 15.5h74q0 -9 -6.5 -28t-19.5 -42.5t-39 -40.5t-58 -17z" />
    <glyph glyph-name="odieresis" unicode="&#xf6;" horiz-adv-x="605" 
d="M262 604h-111v119h111v-119zM454 604h-111v119h111v-119zM303 -10q-124 0 -199.5 79.5t-75.5 191.5q0 114 75.5 193t199.5 79t199 -79t75 -193q0 -113 -75 -192t-199 -79zM166 261q0 -68 39.5 -112.5t97.5 -44.5t97.5 45t39.5 113t-39.5 112.5t-97.5 44.5t-97.5 -45
t-39.5 -113z" />
    <glyph glyph-name="divide" unicode="&#xf7;" horiz-adv-x="509" 
d="M311 419h-113v128h113v-128zM311 48h-113v129h113v-129zM456 244h-403v107h403v-107z" />
    <glyph glyph-name="oslash" unicode="&#xf8;" horiz-adv-x="605" 
d="M50 -4l58 68q-80 78 -80 197q0 114 75.5 193t199.5 79q80 0 144 -37l27 32h76l-56 -67q83 -78 83 -200q0 -113 -75 -192t-199 -79q-85 0 -149 39l-28 -33h-76zM303 104q58 0 97.5 45t39.5 113q0 56 -29 100l-181 -236q33 -22 73 -22zM166 261q0 -57 27 -98l179 236
q-31 20 -69 20q-58 0 -97.5 -45t-39.5 -113z" />
    <glyph glyph-name="ugrave" unicode="&#xf9;" horiz-adv-x="622" 
d="M220 -10q-81 0 -123 52.5t-42 153.5v328h134v-299q0 -121 87 -121q41 0 77 24t59 71v325h134v-370q0 -21 8 -30t28 -10v-114q-39 -7 -65 -7q-72 0 -82 62l-3 43q-72 -108 -212 -108zM266 585l-93 145h124l55 -119z" />
    <glyph glyph-name="uacute" unicode="&#xfa;" horiz-adv-x="622" 
d="M427 730l-93 -145l-86 26l54 119h125zM220 -10q-81 0 -123 52.5t-42 153.5v328h134v-299q0 -121 87 -121q41 0 77 24t59 71v325h134v-370q0 -21 8 -30t28 -10v-114q-39 -7 -65 -7q-72 0 -82 62l-3 43q-72 -108 -212 -108z" />
    <glyph glyph-name="ucircumflex" unicode="&#xfb;" horiz-adv-x="622" 
d="M215 597l-70 32l106 101h97l106 -101l-69 -32l-85 63zM220 -10q-81 0 -123 52.5t-42 153.5v328h134v-299q0 -121 87 -121q41 0 77 24t59 71v325h134v-370q0 -21 8 -30t28 -10v-114q-39 -7 -65 -7q-72 0 -82 62l-3 43q-72 -108 -212 -108z" />
    <glyph glyph-name="udieresis" unicode="&#xfc;" horiz-adv-x="622" 
d="M259 604h-111v119h111v-119zM451 604h-111v119h111v-119zM220 -10q-81 0 -123 52.5t-42 153.5v328h134v-299q0 -121 87 -121q41 0 77 24t59 71v325h134v-370q0 -21 8 -30t28 -10v-114q-39 -7 -65 -7q-72 0 -82 62l-3 43q-72 -108 -212 -108z" />
    <glyph glyph-name="yacute" unicode="&#xfd;" horiz-adv-x="544" 
d="M67 -218v116q31 -9 59 -9q27 0 44 22t38 89l-208 524h138l143 -408l126 408h126l-221 -628q-21 -59 -67 -92t-107 -33q-35 0 -71 11zM409 730l-93 -145l-86 26l54 119h125z" />
    <glyph glyph-name="thorn" unicode="&#xfe;" horiz-adv-x="600" 
d="M573 256q-1 -112 -78.5 -196t-184.5 -84q-42 0 -71.5 15.5t-41.5 35.5v-240h-137v923h137v-227q38 56 121 56q111 0 183 -87.5t72 -195.5zM435 258q0 67 -34 113.5t-91 46.5q-70 0 -113 -82v-160q0 -28 35.5 -53.5t73.5 -25.5q55 0 92 47t37 114z" />
    <glyph glyph-name="ydieresis" unicode="&#xff;" horiz-adv-x="544" 
d="M67 -218v116q31 -9 59 -9q27 0 44 22t38 89l-208 524h138l143 -408l126 408h126l-221 -628q-21 -59 -67 -92t-107 -33q-35 0 -71 11zM241 604h-111v119h111v-119zM433 604h-111v119h111v-119z" />
    <glyph glyph-name="Amacron" unicode="&#x100;" horiz-adv-x="675" 
d="M148 0h-146l280 710h112l279 -710h-146l-65 177h-249zM437 274l-99 287l-102 -287h201zM489 818h-300v83h300v-83z" />
    <glyph glyph-name="amacron" unicode="&#x101;" horiz-adv-x="578" 
d="M204 -10q-77 0 -128 47.5t-51 118.5q0 75 62.5 122t160.5 47q76 0 128 -23v30q0 52 -30 80t-87 28q-79 0 -164 -59l-41 85q101 67 218 67q113 0 175.5 -56t62.5 -160v-163q0 -39 36 -40v-114q-35 -7 -64 -7q-72 1 -83 62l-3 29q-72 -94 -192 -94zM242 88q75 0 112 44
q22 17 22 38v60q-53 20 -106 20q-52 0 -85 -23.5t-33 -59.5q0 -34 26 -56.5t64 -22.5zM423 633h-300v83h300v-83z" />
    <glyph glyph-name="Abreve" unicode="&#x102;" horiz-adv-x="675" 
d="M148 0h-146l280 710h112l279 -710h-146l-65 177h-249zM437 274l-99 287l-102 -287h201zM338 841q23 0 40 21t20 53h71q0 -58 -37 -96t-94 -38t-94 38t-37 96h72q0 -30 18 -52t41 -22z" />
    <glyph glyph-name="abreve" unicode="&#x103;" horiz-adv-x="578" 
d="M204 -10q-77 0 -128 47.5t-51 118.5q0 75 62.5 122t160.5 47q76 0 128 -23v30q0 52 -30 80t-87 28q-79 0 -164 -59l-41 85q101 67 218 67q113 0 175.5 -56t62.5 -160v-163q0 -39 36 -40v-114q-35 -7 -64 -7q-72 1 -83 62l-3 29q-72 -94 -192 -94zM242 88q75 0 112 44
q22 17 22 38v60q-53 20 -106 20q-52 0 -85 -23.5t-33 -59.5q0 -34 26 -56.5t64 -22.5zM272 656q23 0 40 21t20 53h71q0 -58 -37 -96t-94 -38t-94 38t-37 96h72q0 -30 18 -52t41 -22z" />
    <glyph glyph-name="Aogonek" unicode="&#x104;" horiz-adv-x="675" 
d="M625 -196q-51 8 -78.5 31.5t-27.5 55.5q0 58 81 109h-73l-65 177h-249l-65 -177h-146l280 710h112l279 -710q-82 -48 -82 -90q0 -37 62 -40zM437 274l-99 287l-102 -287h201z" />
    <glyph glyph-name="aogonek" unicode="&#x105;" horiz-adv-x="578" 
d="M498 -196q-51 8 -78.5 31.5t-27.5 55.5q0 55 73 104q-56 7 -66 60l-3 29q-72 -94 -192 -94q-77 0 -128 47.5t-51 118.5q0 75 62.5 122t160.5 47q76 0 128 -23v30q0 52 -30 80t-87 28q-79 0 -164 -59l-41 85q101 67 218 67q113 0 175.5 -56t62.5 -160v-163q0 -39 36 -40
v-114q-82 -48 -82 -90q0 -37 62 -40zM242 88q75 0 112 44q22 17 22 38v60q-53 20 -106 20q-52 0 -85 -23.5t-33 -59.5q0 -34 26 -56.5t64 -22.5z" />
    <glyph glyph-name="Cacute" unicode="&#x106;" horiz-adv-x="670" 
d="M499 915l-93 -145l-86 26l54 119h125zM32 360q0 89 39 168.5t118.5 132.5t182.5 53q92 0 162.5 -42t104.5 -113l-106 -73q-23 55 -68.5 80.5t-96.5 25.5q-92 0 -144.5 -71.5t-52.5 -164.5q0 -97 57 -168.5t143 -71.5q51 0 97.5 27t68.5 81l113 -65q-31 -76 -113 -120.5
t-170 -44.5q-142 0 -238.5 112.5t-96.5 253.5z" />
    <glyph glyph-name="cacute" unicode="&#x107;" horiz-adv-x="564" 
d="M431 730l-93 -145l-86 26l54 119h125zM28 262q0 113 76 192t200 79q83 0 144.5 -36t92.5 -98l-131 -40q-35 60 -107 60q-58 0 -97.5 -44t-39.5 -113q0 -68 40 -113t97 -45q36 0 66.5 17.5t42.5 44.5l131 -40q-28 -61 -91 -98.5t-147 -37.5q-124 0 -200.5 79.5
t-76.5 192.5z" />
    <glyph glyph-name="Ccircumflex" unicode="&#x108;" horiz-adv-x="670" 
d="M287 782l-70 32l106 101h97l106 -101l-69 -32l-85 63zM32 360q0 89 39 168.5t118.5 132.5t182.5 53q92 0 162.5 -42t104.5 -113l-106 -73q-23 55 -68.5 80.5t-96.5 25.5q-92 0 -144.5 -71.5t-52.5 -164.5q0 -97 57 -168.5t143 -71.5q51 0 97.5 27t68.5 81l113 -65
q-31 -76 -113 -120.5t-170 -44.5q-142 0 -238.5 112.5t-96.5 253.5z" />
    <glyph glyph-name="ccircumflex" unicode="&#x109;" horiz-adv-x="564" 
d="M219 597l-70 32l106 101h97l106 -101l-69 -32l-85 63zM28 262q0 113 76 192t200 79q83 0 144.5 -36t92.5 -98l-131 -40q-35 60 -107 60q-58 0 -97.5 -44t-39.5 -113q0 -68 40 -113t97 -45q36 0 66.5 17.5t42.5 44.5l131 -40q-28 -61 -91 -98.5t-147 -37.5
q-124 0 -200.5 79.5t-76.5 192.5z" />
    <glyph glyph-name="Cdotaccent" unicode="&#x10a;" horiz-adv-x="670" 
d="M32 360q0 89 39 168.5t118.5 132.5t182.5 53q92 0 162.5 -42t104.5 -113l-106 -73q-23 55 -68.5 80.5t-96.5 25.5q-92 0 -144.5 -71.5t-52.5 -164.5q0 -97 57 -168.5t143 -71.5q51 0 97.5 27t68.5 81l113 -65q-31 -76 -113 -120.5t-170 -44.5q-142 0 -238.5 112.5
t-96.5 253.5zM432 789h-121v126h121v-126z" />
    <glyph glyph-name="cdotaccent" unicode="&#x10b;" horiz-adv-x="564" 
d="M28 262q0 113 76 192t200 79q83 0 144.5 -36t92.5 -98l-131 -40q-35 60 -107 60q-58 0 -97.5 -44t-39.5 -113q0 -68 40 -113t97 -45q36 0 66.5 17.5t42.5 44.5l131 -40q-28 -61 -91 -98.5t-147 -37.5q-124 0 -200.5 79.5t-76.5 192.5zM364 604h-121v126h121v-126z" />
    <glyph glyph-name="Ccaron" unicode="&#x10c;" horiz-adv-x="670" 
d="M217 883l70 32l85 -63l85 63l69 -32l-106 -101h-97zM32 360q0 89 39 168.5t118.5 132.5t182.5 53q92 0 162.5 -42t104.5 -113l-106 -73q-23 55 -68.5 80.5t-96.5 25.5q-92 0 -144.5 -71.5t-52.5 -164.5q0 -97 57 -168.5t143 -71.5q51 0 97.5 27t68.5 81l113 -65
q-31 -76 -113 -120.5t-170 -44.5q-142 0 -238.5 112.5t-96.5 253.5z" />
    <glyph glyph-name="ccaron" unicode="&#x10d;" horiz-adv-x="564" 
d="M149 698l70 32l85 -63l85 63l69 -32l-106 -101h-97zM28 262q0 113 76 192t200 79q83 0 144.5 -36t92.5 -98l-131 -40q-35 60 -107 60q-58 0 -97.5 -44t-39.5 -113q0 -68 40 -113t97 -45q36 0 66.5 17.5t42.5 44.5l131 -40q-28 -61 -91 -98.5t-147 -37.5
q-124 0 -200.5 79.5t-76.5 192.5z" />
    <glyph glyph-name="Dcaron" unicode="&#x10e;" horiz-adv-x="718" 
d="M175 883l70 32l85 -63l85 63l69 -32l-106 -101h-97zM332 0h-258v710h258q167 0 258.5 -100t91.5 -254q0 -162 -95.5 -259t-254.5 -97zM543 356q0 105 -56 169t-155 64h-120v-468h120q99 0 155 65.5t56 169.5z" />
    <glyph glyph-name="dcaron" unicode="&#x10f;" horiz-adv-x="649" 
d="M780 730l-93 -145l-86 26l54 119h125zM277 -10q-108 0 -178 78.5t-70 193.5t66 193t168 78q56 0 103 -28t73 -73v298h134v-576q0 -39 36 -40v-114q-38 -7 -64 -7q-73 1 -83 62l-3 36q-28 -48 -77 -74.5t-105 -26.5zM312 104q39 0 76.5 25t51.5 63v125q-16 43 -55.5 72.5
t-80.5 29.5q-59 0 -98 -47.5t-39 -112.5q0 -66 41.5 -110.5t103.5 -44.5z" />
    <glyph glyph-name="Dcroat" unicode="&#x110;" horiz-adv-x="722" 
d="M337 0h-258v307h-48v100h48v303h258q167 0 258.5 -100t91.5 -254q0 -162 -95.5 -259t-254.5 -97zM548 356q0 105 -56 169t-155 64h-120v-182h139v-100h-139v-186h120q99 0 155 65.5t56 169.5z" />
    <glyph glyph-name="dcroat" unicode="&#x111;" horiz-adv-x="649" 
d="M277 -10q-108 0 -178 78.5t-70 193.5t66 193t168 78q56 0 103 -28t73 -73v165h-99v79h99v54h134v-54h64v-79h-64v-443q0 -39 36 -40v-114q-38 -7 -64 -7q-73 1 -83 62l-3 36q-28 -48 -77 -74.5t-105 -26.5zM312 104q39 0 76.5 25t51.5 63v125q-16 43 -55.5 72.5
t-80.5 29.5q-59 0 -98 -47.5t-39 -112.5q0 -66 41.5 -110.5t103.5 -44.5z" />
    <glyph glyph-name="Emacron" unicode="&#x112;" horiz-adv-x="604" 
d="M212 121h355v-121h-493v710h484v-121h-346v-171h299v-112h-299v-185zM477 818h-300v83h300v-83z" />
    <glyph glyph-name="emacron" unicode="&#x113;" horiz-adv-x="600" 
d="M304 -10q-123 0 -199.5 78.5t-76.5 190.5q0 115 76 194.5t201 79.5q124 0 198.5 -79t74.5 -190q0 -28 -3 -45h-405q5 -60 45 -95.5t94 -35.5q41 0 76.5 19.5t47.5 51.5l115 -32q-29 -62 -94 -99.5t-150 -37.5zM168 306h272q-5 58 -43.5 94t-93.5 36t-93 -36t-42 -94z
M453 633h-300v83h300v-83z" />
    <glyph glyph-name="Ebreve" unicode="&#x114;" horiz-adv-x="604" 
d="M212 121h355v-121h-493v710h484v-121h-346v-171h299v-112h-299v-185zM326 841q23 0 40 21t20 53h71q0 -58 -37 -96t-94 -38t-94 38t-37 96h72q0 -30 18 -52t41 -22z" />
    <glyph glyph-name="ebreve" unicode="&#x115;" horiz-adv-x="600" 
d="M304 -10q-123 0 -199.5 78.5t-76.5 190.5q0 115 76 194.5t201 79.5q124 0 198.5 -79t74.5 -190q0 -28 -3 -45h-405q5 -60 45 -95.5t94 -35.5q41 0 76.5 19.5t47.5 51.5l115 -32q-29 -62 -94 -99.5t-150 -37.5zM168 306h272q-5 58 -43.5 94t-93.5 36t-93 -36t-42 -94z
M302 656q23 0 40 21t20 53h71q0 -58 -37 -96t-94 -38t-94 38t-37 96h72q0 -30 18 -52t41 -22z" />
    <glyph glyph-name="Edotaccent" unicode="&#x116;" horiz-adv-x="604" 
d="M212 121h355v-121h-493v710h484v-121h-346v-171h299v-112h-299v-185zM387 789h-121v126h121v-126z" />
    <glyph glyph-name="edotaccent" unicode="&#x117;" horiz-adv-x="600" 
d="M304 -10q-123 0 -199.5 78.5t-76.5 190.5q0 115 76 194.5t201 79.5q124 0 198.5 -79t74.5 -190q0 -28 -3 -45h-405q5 -60 45 -95.5t94 -35.5q41 0 76.5 19.5t47.5 51.5l115 -32q-29 -62 -94 -99.5t-150 -37.5zM168 306h272q-5 58 -43.5 94t-93.5 36t-93 -36t-42 -94z
M363 604h-121v126h121v-126z" />
    <glyph glyph-name="Eogonek" unicode="&#x118;" horiz-adv-x="604" 
d="M212 121h355v-121h-209q-82 -48 -82 -90q0 -37 62 -40l-28 -66q-51 8 -78.5 31.5t-27.5 55.5q0 58 81 109h-211v710h484v-121h-346v-171h299v-112h-299v-185z" />
    <glyph glyph-name="eogonek" unicode="&#x119;" horiz-adv-x="602" 
d="M325 -198q-51 8 -78.5 31.5t-27.5 55.5q0 53 70 102q-117 5 -188.5 82t-71.5 186q0 115 76 194.5t201 79.5q124 0 198.5 -79t74.5 -190q0 -28 -3 -45h-405q5 -60 45 -95.5t94 -35.5q41 0 76.5 19.5t47.5 51.5l115 -32q-24 -49 -70.5 -83.5t-108.5 -47.5q-79 -47 -79 -88
q0 -37 62 -40zM169 306h272q-5 58 -43.5 94t-93.5 36t-93 -36t-42 -94z" />
    <glyph glyph-name="Ecaron" unicode="&#x11a;" horiz-adv-x="604" 
d="M171 883l70 32l85 -63l85 63l69 -32l-106 -101h-97zM212 121h355v-121h-493v710h484v-121h-346v-171h299v-112h-299v-185z" />
    <glyph glyph-name="ecaron" unicode="&#x11b;" horiz-adv-x="600" 
d="M148 698l70 32l85 -63l85 63l69 -32l-106 -101h-97zM304 -10q-123 0 -199.5 78.5t-76.5 190.5q0 115 76 194.5t201 79.5q124 0 198.5 -79t74.5 -190q0 -28 -3 -45h-405q5 -60 45 -95.5t94 -35.5q41 0 76.5 19.5t47.5 51.5l115 -32q-29 -62 -94 -99.5t-150 -37.5zM168 306
h272q-5 58 -43.5 94t-93.5 36t-93 -36t-42 -94z" />
    <glyph glyph-name="Gcircumflex" unicode="&#x11c;" horiz-adv-x="709" 
d="M284 782l-70 32l106 101h97l106 -101l-69 -32l-85 63zM550 0v80q-82 -85 -189 -85q-89 0 -165 51t-119.5 135t-43.5 178q0 147 97 251.5t240 104.5q95 0 165 -41.5t105 -113.5l-103 -76q-25 52 -71 80.5t-101 28.5q-85 0 -139 -69.5t-54 -168.5q0 -101 57 -169.5
t144 -68.5q98 0 177 97v50h-143v101h257v-365h-114z" />
    <glyph glyph-name="gcircumflex" unicode="&#x11d;" horiz-adv-x="633" 
d="M256 597l-70 32l106 101h97l106 -101l-69 -32l-85 63zM265 -3q-102 0 -168.5 77.5t-66.5 187.5q0 115 68.5 193t174.5 78q118 0 183 -101v92h117v-499q0 -114 -81 -181t-209 -67q-158 0 -246 109l73 71q30 -37 76 -58t97 -21q68 0 112 37t44 110v66q-26 -44 -73 -69
t-101 -25zM311 104q42 0 77.5 25.5t50.5 62.5v125q-18 45 -56 73.5t-80 28.5q-60 0 -98.5 -48t-38.5 -113t42 -109.5t103 -44.5z" />
    <glyph glyph-name="Gbreve" unicode="&#x11e;" horiz-adv-x="709" 
d="M550 0v80q-82 -85 -189 -85q-89 0 -165 51t-119.5 135t-43.5 178q0 147 97 251.5t240 104.5q95 0 165 -41.5t105 -113.5l-103 -76q-25 52 -71 80.5t-101 28.5q-85 0 -139 -69.5t-54 -168.5q0 -101 57 -169.5t144 -68.5q98 0 177 97v50h-143v101h257v-365h-114zM369 841
q23 0 40 21t20 53h71q0 -58 -37 -96t-94 -38t-94 38t-37 96h72q0 -30 18 -52t41 -22z" />
    <glyph glyph-name="gbreve" unicode="&#x11f;" horiz-adv-x="633" 
d="M265 -3q-102 0 -168.5 77.5t-66.5 187.5q0 115 68.5 193t174.5 78q118 0 183 -101v92h117v-499q0 -114 -81 -181t-209 -67q-158 0 -246 109l73 71q30 -37 76 -58t97 -21q68 0 112 37t44 110v66q-26 -44 -73 -69t-101 -25zM311 104q42 0 77.5 25.5t50.5 62.5v125
q-18 45 -56 73.5t-80 28.5q-60 0 -98.5 -48t-38.5 -113t42 -109.5t103 -44.5zM340 656q23 0 40 21t20 53h71q0 -58 -37 -96t-94 -38t-94 38t-37 96h72q0 -30 18 -52t41 -22z" />
    <glyph glyph-name="Gdotaccent" unicode="&#x120;" horiz-adv-x="709" 
d="M550 0v80q-82 -85 -189 -85q-89 0 -165 51t-119.5 135t-43.5 178q0 147 97 251.5t240 104.5q95 0 165 -41.5t105 -113.5l-103 -76q-25 52 -71 80.5t-101 28.5q-85 0 -139 -69.5t-54 -168.5q0 -101 57 -169.5t144 -68.5q98 0 177 97v50h-143v101h257v-365h-114zM429 789
h-121v126h121v-126z" />
    <glyph glyph-name="gdotaccent" unicode="&#x121;" horiz-adv-x="633" 
d="M265 -3q-102 0 -168.5 77.5t-66.5 187.5q0 115 68.5 193t174.5 78q118 0 183 -101v92h117v-499q0 -114 -81 -181t-209 -67q-158 0 -246 109l73 71q30 -37 76 -58t97 -21q68 0 112 37t44 110v66q-26 -44 -73 -69t-101 -25zM311 104q42 0 77.5 25.5t50.5 62.5v125
q-18 45 -56 73.5t-80 28.5q-60 0 -98.5 -48t-38.5 -113t42 -109.5t103 -44.5zM401 604h-121v126h121v-126z" />
    <glyph glyph-name="Gcommaaccent" unicode="&#x122;" horiz-adv-x="709" 
d="M280 -191v55q33 0 33 25v64h109v-69q0 -45 -35.5 -60t-106.5 -15zM550 0v80q-82 -85 -189 -85q-89 0 -165 51t-119.5 135t-43.5 178q0 147 97 251.5t240 104.5q95 0 165 -41.5t105 -113.5l-103 -76q-25 52 -71 80.5t-101 28.5q-85 0 -139 -69.5t-54 -168.5
q0 -101 57 -169.5t144 -68.5q98 0 177 97v50h-143v101h257v-365h-114z" />
    <glyph glyph-name="gcommaaccent" unicode="&#x123;" horiz-adv-x="633" 
d="M468 730l-93 -145l-86 26l54 119h125zM265 -3q-102 0 -168.5 77.5t-66.5 187.5q0 115 68.5 193t174.5 78q118 0 183 -101v92h117v-499q0 -114 -81 -181t-209 -67q-158 0 -246 109l73 71q30 -37 76 -58t97 -21q68 0 112 37t44 110v66q-26 -44 -73 -69t-101 -25zM311 104
q42 0 77.5 25.5t50.5 62.5v125q-18 45 -56 73.5t-80 28.5q-60 0 -98.5 -48t-38.5 -113t42 -109.5t103 -44.5z" />
    <glyph glyph-name="Hcircumflex" unicode="&#x124;" horiz-adv-x="745" 
d="M291 782l-70 32l106 101h97l106 -101l-69 -32l-85 63zM534 710h137v-710h-137v303h-322v-303h-138v710h138v-287h322v287z" />
    <glyph glyph-name="hcircumflex" unicode="&#x125;" horiz-adv-x="602" 
d="M305 598l-62 32l93 98h86l93 -98l-61 -32l-75 62zM547 327v-327h-134v294q0 121 -88 121q-38 0 -77 -31t-54 -78v-306h-134v730h134v-303q29 50 79 78t109 28q165 0 165 -206z" />
    <glyph glyph-name="Hbar" unicode="&#x126;" horiz-adv-x="752" 
d="M538 710h137v-101h49v-66h-49v-543h-137v303h-322v-303h-138v543h-50v66h50v101h138v-101h322v101zM216 423h322v120h-322v-120z" />
    <glyph glyph-name="hbar" unicode="&#x127;" horiz-adv-x="602" 
d="M547 327v-327h-134v294q0 121 -88 121q-38 0 -77 -31t-54 -78v-306h-134v597h-45v79h45v54h134v-54h118v-79h-118v-170q29 50 79 78t109 28q165 0 165 -206z" />
    <glyph glyph-name="Itilde" unicode="&#x128;" horiz-adv-x="286" 
d="M212 0h-138v709h138v-709zM206 787q-32 0 -71.5 22.5t-59.5 22.5t-32 -12.5t-14 -21t-2 -14.5h-74q0 17 10 44.5t38.5 55.5t68.5 28q32 0 71 -23.5t61 -23.5q21 0 34.5 12.5t16 22t2.5 15.5h74q0 -9 -6.5 -28t-19.5 -42.5t-39 -40.5t-58 -17z" />
    <glyph glyph-name="itilde" unicode="&#x129;" 
d="M194 0h-134v524h134v-524zM189 602q-32 0 -71.5 22.5t-59.5 22.5t-32 -12.5t-14 -21t-2 -14.5h-74q0 17 10 44.5t38.5 55.5t68.5 28q32 0 71 -23.5t61 -23.5q21 0 34.5 12.5t16 22t2.5 15.5h74q0 -9 -6.5 -28t-19.5 -42.5t-39 -40.5t-58 -17z" />
    <glyph glyph-name="Imacron" unicode="&#x12a;" horiz-adv-x="286" 
d="M212 0h-138v709h138v-709zM294 818h-300v83h300v-83z" />
    <glyph glyph-name="imacron" unicode="&#x12b;" 
d="M194 0h-134v524h134v-524zM278 633h-300v83h300v-83z" />
    <glyph glyph-name="Ibreve" unicode="&#x12c;" horiz-adv-x="286" 
d="M212 0h-138v709h138v-709zM142 841q23 0 40 21t20 53h71q0 -58 -37 -96t-94 -38t-94 38t-37 96h72q0 -30 18 -52t41 -22z" />
    <glyph glyph-name="ibreve" unicode="&#x12d;" 
d="M194 0h-134v524h134v-524zM126 656q23 0 40 21t20 53h71q0 -58 -37 -96t-94 -38t-94 38t-37 96h72q0 -30 18 -52t41 -22z" />
    <glyph glyph-name="Iogonek" unicode="&#x12e;" horiz-adv-x="286" 
d="M164 -196q-51 8 -78.5 31.5t-27.5 55.5q0 58 81 109h-65v709h138v-709q-82 -48 -82 -90q0 -37 62 -40z" />
    <glyph glyph-name="iogonek" unicode="&#x12f;" horiz-adv-x="254" 
d="M147 -196q-51 8 -78.5 31.5t-27.5 55.5q0 58 81 109h-61v524h134v-524q-82 -48 -82 -90q0 -37 62 -40zM195 597h-134v133h134v-133z" />
    <glyph glyph-name="Idotaccent" unicode="&#x130;" horiz-adv-x="286" 
d="M212 0h-138v709h138v-709zM203 789h-121v126h121v-126z" />
    <glyph glyph-name="dotlessi" unicode="&#x131;" 
d="M194 0h-134v524h134v-524z" />
    <glyph glyph-name="IJ" unicode="&#x132;" horiz-adv-x="781" 
d="M212 0h-138v709h138v-709zM297 33l31 112q47 -34 123 -34q79 0 102.5 53t23.5 185v360h138v-360q0 -72 -5 -121.5t-21 -98t-44 -77t-76.5 -46t-117.5 -17.5q-90 0 -154 44z" />
    <glyph glyph-name="ij" unicode="&#x133;" horiz-adv-x="506" 
d="M194 0h-134v524h134v-524zM194 597h-134v133h134v-133zM265 -196q-80 0 -133 47l57 91q23 -22 59 -22q27 0 46 18.5t19 47.5v538h134v-528q0 -84 -52.5 -138t-129.5 -54zM447 597h-134v133h134v-133z" />
    <glyph glyph-name="Jcircumflex" unicode="&#x134;" horiz-adv-x="495" 
d="M277 782l-70 32l106 101h97l106 -101l-69 -32l-85 63zM11 33l31 112q47 -34 123 -34q79 0 102.5 53t23.5 185v360h138v-360q0 -72 -5 -121.5t-21 -98t-44 -77t-76.5 -46t-117.5 -17.5q-90 0 -154 44z" />
    <glyph glyph-name="jcircumflex" unicode="&#x135;" 
d="M12 -196q-80 0 -133 47l57 91q23 -22 59 -22q27 0 46 18.5t19 47.5v538h134v-528q0 -84 -52.5 -138t-129.5 -54zM42 597l-70 32l106 101h97l106 -101l-69 -32l-85 63z" />
    <glyph glyph-name="Kcommaaccent" unicode="&#x136;" horiz-adv-x="667" 
d="M263 -191v55q33 0 33 25v64h109v-69q0 -45 -35.5 -60t-106.5 -15zM212 0h-138v709h138v-346l307 347h143l-272 -315l289 -395h-146l-226 317l-95 -103v-214z" />
    <glyph glyph-name="kcommaaccent" unicode="&#x137;" horiz-adv-x="557" 
d="M199 -191v55q33 0 33 25v64h109v-69q0 -45 -35.5 -60t-106.5 -15zM561 0h-143l-152 227l-72 -71v-156h-134v730h134v-443l210 236h143l-196 -222z" />
    <glyph glyph-name="kgreenlandic" unicode="&#x138;" horiz-adv-x="557" 
d="M561 0h-143l-152 227l-72 -71v-156h-134v524h134v-237l210 236h143l-196 -222z" />
    <glyph glyph-name="Lacute" unicode="&#x139;" horiz-adv-x="589" 
d="M486 915l-93 -145l-86 26l54 119h125zM574 0h-500v710h138v-589h362v-121z" />
    <glyph glyph-name="lacute" unicode="&#x13a;" horiz-adv-x="317" 
d="M251 909l-93 -145l-86 26l54 119h125zM59 121v609h134v-556q0 -61 55 -61q21 0 53 13l18 -107q-57 -27 -128 -27q-62 0 -97 34t-35 95z" />
    <glyph glyph-name="Lcommaaccent" unicode="&#x13b;" horiz-adv-x="589" 
d="M247 -191v55q33 0 33 25v64h109v-69q0 -45 -35.5 -60t-106.5 -15zM574 0h-500v710h138v-589h362v-121z" />
    <glyph glyph-name="lcommaaccent" unicode="&#x13c;" horiz-adv-x="317" 
d="M100 -191v55q33 0 33 25v64h109v-69q0 -45 -35.5 -60t-106.5 -15zM59 121v609h134v-556q0 -61 55 -61q21 0 53 13l18 -107q-57 -27 -128 -27q-62 0 -97 34t-35 95z" />
    <glyph glyph-name="Lcaron" unicode="&#x13d;" horiz-adv-x="590" 
d="M506 730l-93 -145l-86 26l54 119h125zM574 0h-500v710h138v-589h362v-121z" />
    <glyph glyph-name="lcaron" unicode="&#x13e;" horiz-adv-x="317" 
d="M413 730l-93 -145l-86 26l54 119h125zM59 121v609h134v-556q0 -61 55 -61q21 0 53 13l18 -107q-57 -27 -128 -27q-62 0 -97 34t-35 95z" />
    <glyph glyph-name="Ldot" unicode="&#x13f;" horiz-adv-x="590" 
d="M574 0h-500v710h138v-589h362v-121zM475 331h-110v151h110v-151z" />
    <glyph glyph-name="ldot" unicode="&#x140;" horiz-adv-x="396" 
d="M59 121v609h134v-556q0 -61 55 -61q21 0 53 13l18 -107q-57 -27 -128 -27q-62 0 -97 34t-35 95zM379 283h-110v151h110v-151z" />
    <glyph glyph-name="Lslash" unicode="&#x141;" horiz-adv-x="599" 
d="M584 0h-500v275l-52 -33l-34 73l86 54v341h138v-254l109 69l33 -73l-142 -90v-241h362v-121z" />
    <glyph glyph-name="lslash" unicode="&#x142;" horiz-adv-x="343" 
d="M81 121v178l-51 -30l-34 72l85 51v338h134v-258l86 52l34 -72l-120 -72v-206q0 -61 55 -61q21 0 53 13l18 -107q-57 -27 -128 -27q-62 0 -97 34t-35 95z" />
    <glyph glyph-name="Nacute" unicode="&#x143;" horiz-adv-x="763" 
d="M509 915l-93 -145l-86 26l54 119h125zM577 0l-365 455v-455h-138v710h107l370 -466v465h138v-709h-112z" />
    <glyph glyph-name="nacute" unicode="&#x144;" horiz-adv-x="602" 
d="M443 730l-93 -145l-86 26l54 119h125zM547 327v-327h-134v294q0 121 -83 121q-41 0 -81 -31.5t-55 -77.5v-306h-134v524h121v-97q29 50 84 78t124 28q158 0 158 -206z" />
    <glyph glyph-name="Ncommaaccent" unicode="&#x145;" horiz-adv-x="763" 
d="M292 -191v55q33 0 33 25v64h109v-69q0 -45 -35.5 -60t-106.5 -15zM577 0l-365 455v-455h-138v710h107l370 -466v465h138v-709h-112z" />
    <glyph glyph-name="ncommaaccent" unicode="&#x146;" horiz-adv-x="602" 
d="M211 -191v55q33 0 33 25v64h109v-69q0 -45 -35.5 -60t-106.5 -15zM547 327v-327h-134v294q0 121 -83 121q-41 0 -81 -31.5t-55 -77.5v-306h-134v524h121v-97q29 50 84 78t124 28q158 0 158 -206z" />
    <glyph glyph-name="Ncaron" unicode="&#x147;" horiz-adv-x="763" 
d="M227 883l70 32l85 -63l85 63l69 -32l-106 -101h-97zM577 0l-365 455v-455h-138v710h107l370 -466v465h138v-709h-112z" />
    <glyph glyph-name="ncaron" unicode="&#x148;" horiz-adv-x="602" 
d="M161 698l70 32l85 -63l85 63l69 -32l-106 -101h-97zM547 327v-327h-134v294q0 121 -83 121q-41 0 -81 -31.5t-55 -77.5v-306h-134v524h121v-97q29 50 84 78t124 28q158 0 158 -206z" />
    <glyph glyph-name="napostrophe" unicode="&#x149;" horiz-adv-x="602" 
d="M154 730l-93 -145l-85 26l34 73l-7 46h151zM547 327v-327h-134v294q0 121 -83 121q-41 0 -81 -31.5t-55 -77.5v-306h-134v524h121v-97q29 50 84 78t124 28q158 0 158 -206z" />
    <glyph glyph-name="Eng" unicode="&#x14a;" horiz-adv-x="749" 
d="M541 28l-329 423v-451h-138v710h106l358 -460v459h137v-718q0 -82 -53 -134.5t-129 -52.5q-80 0 -133 47l58 91q22 -22 58 -22q27 0 46 18.5t19 47.5v42z" />
    <glyph glyph-name="eng" unicode="&#x14b;" horiz-adv-x="601" 
d="M365 -196q-81 0 -134 47l58 91q23 -22 59 -22q27 0 46 18.5t19 47.5v308q0 121 -83 121q-41 0 -81 -31.5t-55 -77.5v-306h-134v524h121v-97q29 50 84 78t124 28q157 0 157 -206v-331q0 -84 -52.5 -138t-128.5 -54z" />
    <glyph glyph-name="Omacron" unicode="&#x14c;" horiz-adv-x="740" 
d="M523 818h-300v83h300v-83zM369 -5q-97 0 -175.5 52.5t-119.5 134t-41 173.5q0 145 98 252.5t241 107.5q97 0 175 -53.5t119 -135.5t41 -173q0 -144 -97 -251t-241 -107zM172 355q0 -97 54.5 -167.5t144.5 -70.5t143.5 72t53.5 166q0 96 -55 166.5t-143 70.5
q-90 0 -144 -71.5t-54 -165.5z" />
    <glyph glyph-name="omacron" unicode="&#x14d;" horiz-adv-x="605" 
d="M454 633h-300v83h300v-83zM303 -10q-124 0 -199.5 79.5t-75.5 191.5q0 114 75.5 193t199.5 79t199 -79t75 -193q0 -113 -75 -192t-199 -79zM166 261q0 -68 39.5 -112.5t97.5 -44.5t97.5 45t39.5 113t-39.5 112.5t-97.5 44.5t-97.5 -45t-39.5 -113z" />
    <glyph glyph-name="Obreve" unicode="&#x14e;" horiz-adv-x="740" 
d="M369 -5q-97 0 -175.5 52.5t-119.5 134t-41 173.5q0 145 98 252.5t241 107.5q97 0 175 -53.5t119 -135.5t41 -173q0 -144 -97 -251t-241 -107zM172 355q0 -97 54.5 -167.5t144.5 -70.5t143.5 72t53.5 166q0 96 -55 166.5t-143 70.5q-90 0 -144 -71.5t-54 -165.5zM372 841
q23 0 40 21t20 53h71q0 -58 -37 -96t-94 -38t-94 38t-37 96h72q0 -30 18 -52t41 -22z" />
    <glyph glyph-name="obreve" unicode="&#x14f;" horiz-adv-x="605" 
d="M303 -10q-124 0 -199.5 79.5t-75.5 191.5q0 114 75.5 193t199.5 79t199 -79t75 -193q0 -113 -75 -192t-199 -79zM166 261q0 -68 39.5 -112.5t97.5 -44.5t97.5 45t39.5 113t-39.5 112.5t-97.5 44.5t-97.5 -45t-39.5 -113zM302 656q23 0 40 21t20 53h71q0 -58 -37 -96
t-94 -38t-94 38t-37 96h72q0 -30 18 -52t41 -22z" />
    <glyph glyph-name="Ohungarumlaut" unicode="&#x150;" horiz-adv-x="740" 
d="M395 916l-86 -145l-66 26l48 119h104zM556 916l-87 -145l-65 26l47 119h105zM369 -5q-97 0 -175.5 52.5t-119.5 134t-41 173.5q0 145 98 252.5t241 107.5q97 0 175 -53.5t119 -135.5t41 -173q0 -144 -97 -251t-241 -107zM172 355q0 -97 54.5 -167.5t144.5 -70.5t143.5 72
t53.5 166q0 96 -55 166.5t-143 70.5q-90 0 -144 -71.5t-54 -165.5z" />
    <glyph glyph-name="ohungarumlaut" unicode="&#x151;" horiz-adv-x="605" 
d="M326 730l-86 -145l-66 26l48 119h104zM487 730l-87 -145l-65 26l47 119h105zM303 -10q-124 0 -199.5 79.5t-75.5 191.5q0 114 75.5 193t199.5 79t199 -79t75 -193q0 -113 -75 -192t-199 -79zM166 261q0 -68 39.5 -112.5t97.5 -44.5t97.5 45t39.5 113t-39.5 112.5
t-97.5 44.5t-97.5 -45t-39.5 -113z" />
    <glyph glyph-name="OE" unicode="&#x152;" horiz-adv-x="1090" 
d="M711 121h342v-121h-479v105q-35 -49 -89 -79.5t-115 -30.5q-97 0 -175.5 52.5t-120 134t-41.5 173.5q0 145 98 252.5t241 107.5q62 0 114.5 -30t87.5 -79v104h470v-121h-333v-167h279v-121h-279v-180zM371 117q90 0 143.5 72t53.5 167q0 96 -55 166.5t-143 70.5
q-90 0 -144 -72t-54 -166q0 -97 54.5 -167.5t144.5 -70.5z" />
    <glyph glyph-name="oe" unicode="&#x153;" horiz-adv-x="1012" 
d="M301 -10q-118 0 -195.5 77t-77.5 194q0 118 77.5 195t195.5 77q135 0 207 -122q75 122 210 122q117 0 192.5 -75t79.5 -196q0 -26 -3 -43h-404q4 -57 45 -95.5t98 -38.5q42 0 77.5 21t48.5 53l111 -32q-30 -63 -96 -100t-146 -37q-120 0 -212 118q-91 -118 -208 -118z
M303 104q59 0 98 44.5t39 112.5t-39 113t-98 45t-98 -45.5t-39 -113.5q0 -67 39 -111.5t98 -44.5zM579 302h274q-5 59 -44.5 96.5t-94.5 37.5q-56 0 -93.5 -37.5t-41.5 -96.5z" />
    <glyph glyph-name="Racute" unicode="&#x154;" horiz-adv-x="674" 
d="M447 916l-93 -145l-86 26l54 119h125zM212 0h-138v710h314q95 0 160.5 -72.5t65.5 -163.5q0 -69 -35 -125.5t-93 -81.5l167 -267h-156l-149 238h-136v-238zM212 589v-230h173q38 0 64 33.5t26 81.5t-29 81.5t-67 33.5h-167z" />
    <glyph glyph-name="racute" unicode="&#x155;" horiz-adv-x="387" 
d="M359 730l-93 -145l-86 26l54 119h125zM372 530v-122q-62 -1 -109.5 -24.5t-68.5 -66.5v-317h-134v524h123v-112q27 54 71 87t91 33q15 0 27 -2z" />
    <glyph glyph-name="Rcommaaccent" unicode="&#x156;" horiz-adv-x="674" 
d="M253 -191v55q33 0 33 25v64h109v-69q0 -45 -35.5 -60t-106.5 -15zM212 0h-138v710h314q95 0 160.5 -72.5t65.5 -163.5q0 -69 -35 -125.5t-93 -81.5l167 -267h-156l-149 238h-136v-238zM212 589v-230h173q38 0 64 33.5t26 81.5t-29 81.5t-67 33.5h-167z" />
    <glyph glyph-name="rcommaaccent" unicode="&#x157;" horiz-adv-x="387" 
d="M33 -191v55q33 0 33 25v64h109v-69q0 -45 -35.5 -60t-106.5 -15zM372 530v-122q-62 -1 -109.5 -24.5t-68.5 -66.5v-317h-134v524h123v-112q27 54 71 87t91 33q15 0 27 -2z" />
    <glyph glyph-name="Rcaron" unicode="&#x158;" horiz-adv-x="674" 
d="M164 884l70 32l85 -63l85 63l69 -32l-106 -101h-97zM212 0h-138v710h314q95 0 160.5 -72.5t65.5 -163.5q0 -69 -35 -125.5t-93 -81.5l167 -267h-156l-149 238h-136v-238zM212 589v-230h173q38 0 64 33.5t26 81.5t-29 81.5t-67 33.5h-167z" />
    <glyph glyph-name="rcaron" unicode="&#x159;" horiz-adv-x="387" 
d="M77 698l70 32l85 -63l85 63l69 -32l-106 -101h-97zM372 530v-122q-62 -1 -109.5 -24.5t-68.5 -66.5v-317h-134v524h123v-112q27 54 71 87t91 33q15 0 27 -2z" />
    <glyph glyph-name="Sacute" unicode="&#x15a;" horiz-adv-x="615" 
d="M450 923l-93 -145l-86 26l54 119h125zM559 636l-61 -112q-18 20 -76 45t-115 25q-113 0 -113 -80q0 -40 34.5 -58.5t127.5 -42.5q117 -30 172.5 -74.5t55.5 -135.5q0 -108 -74 -159.5t-189 -51.5q-168 0 -298 92l61 119q25 -25 96.5 -56t142.5 -31q114 0 114 73
q0 42 -40 62.5t-135 46.5q-6 1 -9 2q-106 29 -153.5 71t-47.5 121q0 105 73 164t186 59q131 0 248 -79z" />
    <glyph glyph-name="sacute" unicode="&#x15b;" horiz-adv-x="508" 
d="M381 730l-93 -145l-86 26l54 119h125zM267 -10q-66 0 -135 19t-115 51l54 91q100 -65 193 -65q42 0 66 15t24 43q0 26 -26.5 40t-97.5 31q-105 24 -146 55.5t-41 90.5q0 79 59.5 126t151.5 47q111 0 215 -65l-55 -83q-83 53 -161 53q-38 0 -61.5 -15t-23.5 -44
q0 -26 21.5 -38t85.5 -28q116 -28 162.5 -61t46.5 -97q0 -76 -59 -121t-158 -45z" />
    <glyph glyph-name="Scircumflex" unicode="&#x15c;" horiz-adv-x="615" 
d="M238 790l-70 32l106 101h97l106 -101l-69 -32l-85 63zM559 636l-61 -112q-18 20 -76 45t-115 25q-113 0 -113 -80q0 -40 34.5 -58.5t127.5 -42.5q117 -30 172.5 -74.5t55.5 -135.5q0 -108 -74 -159.5t-189 -51.5q-168 0 -298 92l61 119q25 -25 96.5 -56t142.5 -31
q114 0 114 73q0 42 -40 62.5t-135 46.5q-6 1 -9 2q-106 29 -153.5 71t-47.5 121q0 105 73 164t186 59q131 0 248 -79z" />
    <glyph glyph-name="scircumflex" unicode="&#x15d;" horiz-adv-x="508" 
d="M168 597l-70 32l106 101h97l106 -101l-69 -32l-85 63zM267 -10q-66 0 -135 19t-115 51l54 91q100 -65 193 -65q42 0 66 15t24 43q0 26 -26.5 40t-97.5 31q-105 24 -146 55.5t-41 90.5q0 79 59.5 126t151.5 47q111 0 215 -65l-55 -83q-83 53 -161 53q-38 0 -61.5 -15
t-23.5 -44q0 -26 21.5 -38t85.5 -28q116 -28 162.5 -61t46.5 -97q0 -76 -59 -121t-158 -45z" />
    <glyph glyph-name="uni015E" unicode="&#x15e;" horiz-adv-x="615" 
d="M213 -176l27 49q34 -19 89 -19q56 0 56 33t-52 33q-32 0 -80 -12l43 85q-158 8 -273 91l61 119q25 -25 96.5 -56t142.5 -31q114 0 114 73q0 42 -40 62.5t-135 46.5q-6 1 -9 2q-106 29 -153.5 71t-47.5 121q0 105 73 164t186 59q131 0 248 -79l-61 -112q-18 20 -76 45
t-115 25q-113 0 -113 -80q0 -40 34.5 -58.5t127.5 -42.5q117 -30 172.5 -74.5t55.5 -135.5q0 -100 -64 -151.5t-166 -58.5l-23 -35q12 4 32 4q38 0 61.5 -17.5t23.5 -52.5q0 -40 -33 -64t-95 -24q-58 0 -107 20z" />
    <glyph glyph-name="uni015F" unicode="&#x15f;" horiz-adv-x="509" 
d="M160 -176l27 49q34 -19 89 -19q56 0 56 33t-52 33q-32 0 -80 -12l42 83q-136 7 -225 69l54 91q100 -65 193 -65q42 0 66 15t24 43q0 26 -26.5 40t-97.5 31q-105 24 -146 55.5t-41 90.5q0 79 59.5 126t151.5 47q111 0 215 -65l-55 -83q-83 53 -161 53q-38 0 -61.5 -15
t-23.5 -44q0 -26 21.5 -38t85.5 -28q116 -28 162.5 -61t46.5 -97q0 -70 -49.5 -113.5t-135.5 -50.5l-21 -34q12 4 32 4q38 0 61.5 -17.5t23.5 -52.5q0 -40 -33 -64t-95 -24q-58 0 -107 20z" />
    <glyph glyph-name="Scaron" unicode="&#x160;" horiz-adv-x="615" 
d="M168 891l70 32l85 -63l85 63l69 -32l-106 -101h-97zM559 636l-61 -112q-18 20 -76 45t-115 25q-113 0 -113 -80q0 -40 34.5 -58.5t127.5 -42.5q117 -30 172.5 -74.5t55.5 -135.5q0 -108 -74 -159.5t-189 -51.5q-168 0 -298 92l61 119q25 -25 96.5 -56t142.5 -31
q114 0 114 73q0 42 -40 62.5t-135 46.5q-6 1 -9 2q-106 29 -153.5 71t-47.5 121q0 105 73 164t186 59q131 0 248 -79z" />
    <glyph glyph-name="scaron" unicode="&#x161;" horiz-adv-x="508" 
d="M98 698l70 32l85 -63l85 63l69 -32l-106 -101h-97zM267 -10q-66 0 -135 19t-115 51l54 91q100 -65 193 -65q42 0 66 15t24 43q0 26 -26.5 40t-97.5 31q-105 24 -146 55.5t-41 90.5q0 79 59.5 126t151.5 47q111 0 215 -65l-55 -83q-83 53 -161 53q-38 0 -61.5 -15
t-23.5 -44q0 -26 21.5 -38t85.5 -28q116 -28 162.5 -61t46.5 -97q0 -76 -59 -121t-158 -45z" />
    <glyph glyph-name="uni0162" unicode="&#x162;" horiz-adv-x="620" 
d="M208 -176l27 49q34 -19 89 -19q56 0 56 33t-52 33q-32 0 -80 -12l47 92h-54v589h-227v121h591v-121h-226v-589h-26l-27 -42q12 4 32 4q38 0 61.5 -17.5t23.5 -52.5q0 -40 -33 -64t-95 -24q-58 0 -107 20z" />
    <glyph glyph-name="uni0163" unicode="&#x163;" horiz-adv-x="382" 
d="M120 -176l27 49q34 -19 89 -19q56 0 56 33t-52 33q-32 0 -80 -12l43 84q-51 6 -82 37.5t-31 90.5v301h-68v103h68v170h134v-170h111v-103h-111v-256q0 -51 51 -51q30 0 73 19l27 -106q-59 -27 -114 -34l-23 -35q12 4 32 4q38 0 61.5 -17.5t23.5 -52.5q0 -40 -33 -64
t-95 -24q-58 0 -107 20z" />
    <glyph glyph-name="Tcaron" unicode="&#x164;" horiz-adv-x="620" 
d="M161 883l70 32l85 -63l85 63l69 -32l-106 -101h-97zM605 710v-121h-226v-589h-138v589h-227v121h591z" />
    <glyph glyph-name="tcaron" unicode="&#x165;" horiz-adv-x="382" 
d="M450 730l-93 -145l-86 26l54 119h125zM348 133l27 -106q-81 -36 -149 -36q-60 0 -98 31.5t-38 97.5v301h-68v103h68v170h134v-170h111v-103h-111v-256q0 -51 51 -51q30 0 73 19z" />
    <glyph glyph-name="Tbar" unicode="&#x166;" horiz-adv-x="649" 
d="M620 710v-121h-226v-210h189v-66h-189v-313h-138v313h-190v66h190v210h-227v121h591z" />
    <glyph glyph-name="tbar" unicode="&#x167;" horiz-adv-x="383" 
d="M349 133l27 -106q-81 -36 -149 -36q-60 0 -98 31.5t-38 97.5v144h-68v80h68v77h-68v103h68v170h134v-170h111v-103h-111v-77h111v-80h-111v-99q0 -51 51 -51q30 0 73 19z" />
    <glyph glyph-name="Utilde" unicode="&#x168;" horiz-adv-x="748" 
d="M373 117q63 0 103.5 35t55.5 84t15 112v362h137v-362q0 -156 -77 -254.5t-233 -98.5q-82 0 -144 29t-97.5 79t-52.5 111.5t-17 133.5v362h138v-362q0 -100 41 -165.5t131 -65.5zM437 787q-32 0 -71.5 22.5t-59.5 22.5t-32 -12.5t-14 -21t-2 -14.5h-74q0 17 10 44.5
t38.5 55.5t68.5 28q32 0 71 -23.5t61 -23.5q21 0 34.5 12.5t16 22t2.5 15.5h74q0 -9 -6.5 -28t-19.5 -42.5t-39 -40.5t-58 -17z" />
    <glyph glyph-name="utilde" unicode="&#x169;" horiz-adv-x="622" 
d="M220 -10q-81 0 -123 52.5t-42 153.5v328h134v-299q0 -121 87 -121q41 0 77 24t59 71v325h134v-370q0 -21 8 -30t28 -10v-114q-39 -7 -65 -7q-72 0 -82 62l-3 43q-72 -108 -212 -108zM363 602q-32 0 -71.5 22.5t-59.5 22.5t-32 -12.5t-14 -21t-2 -14.5h-74q0 17 10 44.5
t38.5 55.5t68.5 28q32 0 71 -23.5t61 -23.5q21 0 34.5 12.5t16 22t2.5 15.5h74q0 -9 -6.5 -28t-19.5 -42.5t-39 -40.5t-58 -17z" />
    <glyph glyph-name="Umacron" unicode="&#x16a;" horiz-adv-x="748" 
d="M373 117q63 0 103.5 35t55.5 84t15 112v362h137v-362q0 -156 -77 -254.5t-233 -98.5q-82 0 -144 29t-97.5 79t-52.5 111.5t-17 133.5v362h138v-362q0 -100 41 -165.5t131 -65.5zM525 818h-300v83h300v-83z" />
    <glyph glyph-name="umacron" unicode="&#x16b;" horiz-adv-x="622" 
d="M220 -10q-81 0 -123 52.5t-42 153.5v328h134v-299q0 -121 87 -121q41 0 77 24t59 71v325h134v-370q0 -21 8 -30t28 -10v-114q-39 -7 -65 -7q-72 0 -82 62l-3 43q-72 -108 -212 -108zM451 633h-300v83h300v-83z" />
    <glyph glyph-name="Ubreve" unicode="&#x16c;" horiz-adv-x="748" 
d="M373 117q63 0 103.5 35t55.5 84t15 112v362h137v-362q0 -156 -77 -254.5t-233 -98.5q-82 0 -144 29t-97.5 79t-52.5 111.5t-17 133.5v362h138v-362q0 -100 41 -165.5t131 -65.5zM374 841q23 0 40 21t20 53h71q0 -58 -37 -96t-94 -38t-94 38t-37 96h72q0 -30 18 -52
t41 -22z" />
    <glyph glyph-name="ubreve" unicode="&#x16d;" horiz-adv-x="622" 
d="M220 -10q-81 0 -123 52.5t-42 153.5v328h134v-299q0 -121 87 -121q41 0 77 24t59 71v325h134v-370q0 -21 8 -30t28 -10v-114q-39 -7 -65 -7q-72 0 -82 62l-3 43q-72 -108 -212 -108zM299 656q23 0 40 21t20 53h71q0 -58 -37 -96t-94 -38t-94 38t-37 96h72q0 -30 18 -52
t41 -22z" />
    <glyph glyph-name="Uring" unicode="&#x16e;" horiz-adv-x="748" 
d="M276 838q0 36 26.5 56.5t70.5 20.5t70.5 -20.5t26.5 -56.5t-26.5 -56.5t-70.5 -20.5t-70.5 20.5t-26.5 56.5zM373 874q-17 0 -28.5 -10t-11.5 -26q0 -15 11.5 -25.5t28.5 -10.5q16 0 28.5 10.5t12.5 25.5q0 16 -11.5 26t-29.5 10zM373 117q63 0 103.5 35t55.5 84t15 112
v362h137v-362q0 -156 -77 -254.5t-233 -98.5q-82 0 -144 29t-97.5 79t-52.5 111.5t-17 133.5v362h138v-362q0 -100 41 -165.5t131 -65.5z" />
    <glyph glyph-name="uring" unicode="&#x16f;" horiz-adv-x="622" 
d="M203 653q0 36 26.5 56.5t70.5 20.5t70.5 -20.5t26.5 -56.5t-26.5 -56.5t-70.5 -20.5t-70.5 20.5t-26.5 56.5zM300 689q-17 0 -28.5 -10t-11.5 -26q0 -15 11.5 -25.5t28.5 -10.5q16 0 28.5 10.5t12.5 25.5q0 16 -11.5 26t-29.5 10zM220 -10q-81 0 -123 52.5t-42 153.5v328
h134v-299q0 -121 87 -121q41 0 77 24t59 71v325h134v-370q0 -21 8 -30t28 -10v-114q-39 -7 -65 -7q-72 0 -82 62l-3 43q-72 -108 -212 -108z" />
    <glyph glyph-name="Uhungarumlaut" unicode="&#x170;" horiz-adv-x="748" 
d="M373 117q63 0 103.5 35t55.5 84t15 112v362h137v-362q0 -156 -77 -254.5t-233 -98.5q-82 0 -144 29t-97.5 79t-52.5 111.5t-17 133.5v362h138v-362q0 -100 41 -165.5t131 -65.5zM396 916l-86 -145l-66 26l48 119h104zM557 916l-87 -145l-65 26l47 119h105z" />
    <glyph glyph-name="uhungarumlaut" unicode="&#x171;" horiz-adv-x="622" 
d="M220 -10q-81 0 -123 52.5t-42 153.5v328h134v-299q0 -121 87 -121q41 0 77 24t59 71v325h134v-370q0 -21 8 -30t28 -10v-114q-39 -7 -65 -7q-72 0 -82 62l-3 43q-72 -108 -212 -108zM323 730l-86 -145l-66 26l48 119h104zM484 730l-87 -145l-65 26l47 119h105z" />
    <glyph glyph-name="Uogonek" unicode="&#x172;" horiz-adv-x="748" 
d="M373 117q63 0 103.5 35t55.5 84t15 112v362h137v-362q0 -149 -70.5 -246t-212.5 -106q-77 -45 -77 -87q0 -37 62 -40l-28 -66q-51 8 -78.5 31.5t-27.5 55.5q0 57 79 108q-137 14 -202.5 111.5t-65.5 238.5v362h138v-362q0 -100 41 -165.5t131 -65.5z" />
    <glyph glyph-name="uogonek" unicode="&#x173;" horiz-adv-x="622" 
d="M220 -10q-81 0 -123 52.5t-42 153.5v328h134v-299q0 -121 87 -121q41 0 77 24t59 71v325h134v-370q0 -21 8 -30t28 -10v-114q-82 -48 -82 -90q0 -37 62 -40l-28 -66q-51 8 -78.5 31.5t-27.5 55.5q0 55 72 103q-57 8 -65 61l-3 43q-72 -108 -212 -108z" />
    <glyph glyph-name="Wcircumflex" unicode="&#x174;" horiz-adv-x="1053" 
d="M441 782l-70 32l106 101h97l106 -101l-69 -32l-85 63zM438 385l-119 323h127l80 -235l80 235h128l-121 -323l90 -227l201 552h150l-289 -710h-116l-123 298l-123 -298h-116l-288 710h149l202 -552z" />
    <glyph glyph-name="wcircumflex" unicode="&#x175;" horiz-adv-x="845" 
d="M338 597l-70 32l106 101h97l106 -101l-69 -32l-85 63zM558 126l155 398h128l-219 -524h-110l-90 230l-89 -230h-110l-219 524h127l156 -398l64 170l-92 227h108l55 -161l56 161h108l-91 -227z" />
    <glyph glyph-name="Ycircumflex" unicode="&#x176;" horiz-adv-x="644" 
d="M-4 710h150l175 -342l178 342h149l-258 -462v-248h-137v250zM237 782l-70 32l106 101h97l106 -101l-69 -32l-85 63z" />
    <glyph glyph-name="ycircumflex" unicode="&#x177;" horiz-adv-x="544" 
d="M67 -218v116q31 -9 59 -9q27 0 44 22t38 89l-208 524h138l143 -408l126 408h126l-221 -628q-21 -59 -67 -92t-107 -33q-35 0 -71 11zM197 597l-70 32l106 101h97l106 -101l-69 -32l-85 63z" />
    <glyph glyph-name="Ydieresis" unicode="&#x178;" horiz-adv-x="644" 
d="M-4 710h150l175 -342l178 342h149l-258 -462v-248h-137v250zM281 790h-111v119h111v-119zM473 790h-111v119h111v-119z" />
    <glyph glyph-name="Zacute" unicode="&#x179;" horiz-adv-x="623" 
d="M452 915l-93 -145l-86 26l54 119h125zM28 0v104l401 485h-390v121h549v-104l-388 -485h391v-121h-563z" />
    <glyph glyph-name="zacute" unicode="&#x17a;" horiz-adv-x="490" 
d="M376 730l-93 -145l-86 26l54 119h125zM25 0v82l291 348h-280v94h421v-82l-290 -348h295v-94h-437z" />
    <glyph glyph-name="Zdotaccent" unicode="&#x17b;" horiz-adv-x="623" 
d="M28 0v104l401 485h-390v121h549v-104l-388 -485h391v-121h-563zM385 789h-121v126h121v-126z" />
    <glyph glyph-name="zdotaccent" unicode="&#x17c;" horiz-adv-x="490" 
d="M25 0v82l291 348h-280v94h421v-82l-290 -348h295v-94h-437zM308 604h-121v126h121v-126z" />
    <glyph glyph-name="Zcaron" unicode="&#x17d;" horiz-adv-x="623" 
d="M169 883l70 32l85 -63l85 63l69 -32l-106 -101h-97zM28 0v104l401 485h-390v121h549v-104l-388 -485h391v-121h-563z" />
    <glyph glyph-name="zcaron" unicode="&#x17e;" horiz-adv-x="490" 
d="M93 698l70 32l85 -63l85 63l69 -32l-106 -101h-97zM25 0v82l291 348h-280v94h421v-82l-290 -348h295v-94h-437z" />
    <glyph glyph-name="florin" unicode="&#x192;" horiz-adv-x="548" 
d="M162 -196q-80 0 -133 47l58 91q22 -22 59 -22q27 0 45.5 18.5t18.5 47.5v374h-68v103h68v65q0 97 47.5 154.5t127.5 57.5q64 0 129 -31l-27 -101q-35 19 -73 19q-70 0 -70 -94v-70h128v-103h-128v-371q0 -80 -53 -132.5t-129 -52.5z" />
    <glyph glyph-name="Oogonek" unicode="&#x1ea;" horiz-adv-x="740" 
d="M353 -197q-51 8 -78.5 31.5t-27.5 55.5q0 57 79 108q-129 17 -211 121.5t-82 235.5q0 145 98 252.5t241 107.5q97 0 175 -53.5t119 -135.5t41 -173q0 -137 -88 -241t-222 -115q-78 -47 -78 -88q0 -37 62 -40zM172 355q0 -97 54.5 -167.5t144.5 -70.5t143.5 72t53.5 166
q0 96 -55 166.5t-143 70.5q-90 0 -144 -71.5t-54 -165.5z" />
    <glyph glyph-name="oogonek" unicode="&#x1eb;" horiz-adv-x="607" 
d="M319 -199q-51 8 -78.5 31.5t-27.5 55.5q0 54 71 103q-116 7 -185.5 84.5t-69.5 185.5q0 114 75.5 193t199.5 79t199 -79t75 -193q0 -97 -57.5 -172t-156.5 -93q-79 -48 -79 -89q0 -37 62 -40zM167 261q0 -68 39.5 -112.5t97.5 -44.5t97.5 45t39.5 113t-39.5 112.5
t-97.5 44.5t-97.5 -45t-39.5 -113z" />
    <glyph glyph-name="Aringacute" unicode="&#x1fa;" horiz-adv-x="675" 
d="M476 918l-77 -110q36 -21 36 -62q0 -40 -32 -61l270 -685h-146l-65 177h-249l-65 -177h-146l270 686q-31 21 -31 60q0 57 61 73l49 99h125zM437 274l-99 287l-102 -287h201zM338 782q-17 0 -28.5 -10t-11.5 -26q0 -15 11.5 -25.5t28.5 -10.5q16 0 28.5 10.5t12.5 25.5
q0 16 -11.5 26t-29.5 10z" />
    <glyph glyph-name="aringacute" unicode="&#x1fb;" horiz-adv-x="578" 
d="M204 -10q-77 0 -128 47.5t-51 118.5q0 75 62.5 122t160.5 47q76 0 128 -23v30q0 52 -30 80t-87 28q-79 0 -164 -59l-41 85q101 67 218 67q113 0 175.5 -56t62.5 -160v-163q0 -39 36 -40v-114q-35 -7 -64 -7q-72 1 -83 62l-3 29q-72 -94 -192 -94zM242 88q75 0 112 44
q22 17 22 38v60q-53 20 -106 20q-52 0 -85 -23.5t-33 -59.5q0 -34 26 -56.5t64 -22.5zM400 900l-93 -145l-86 26l54 119h125zM175 653q0 36 26.5 56.5t70.5 20.5t70.5 -20.5t26.5 -56.5t-26.5 -56.5t-70.5 -20.5t-70.5 20.5t-26.5 56.5zM272 689q-17 0 -28.5 -10t-11.5 -26
q0 -15 11.5 -25.5t28.5 -10.5q16 0 28.5 10.5t12.5 25.5q0 16 -11.5 26t-29.5 10z" />
    <glyph glyph-name="AEacute" unicode="&#x1fc;" horiz-adv-x="981" 
d="M714 915l-93 -145l-86 26l54 119h125zM-14 0l444 710h505v-121h-333v-167h279v-121h-279v-180h342v-121h-478v177h-228l-105 -177h-147zM297 297h159v258z" />
    <glyph glyph-name="aeacute" unicode="&#x1fd;" horiz-adv-x="938" 
d="M583 730l-93 -145l-86 26l54 119h125zM205 -10q-77 0 -128 47.5t-51 118.5q0 75 62.5 122t160.5 47q69 0 118 -20q2 29 8 44q-9 91 -115 91q-79 0 -165 -59l-40 85q101 67 218 67q122 0 183 -74q72 74 186 74q124 0 199 -78.5t76 -192.5q0 -26 -3 -43h-410
q4 -60 45.5 -95.5t98.5 -35.5q41 0 76.5 19.5t47.5 51.5l115 -32q-29 -62 -94 -99.5t-150 -37.5q-72 0 -130.5 29t-93.5 79q-34 -53 -94 -80.5t-120 -27.5zM243 88q74 0 113 44q21 18 21 36q-6 12 -10 65q-49 17 -96 17q-52 0 -85.5 -23.5t-33.5 -59.5q0 -34 26.5 -56.5
t64.5 -22.5zM502 302h277q-5 60 -43.5 97t-95.5 37t-95.5 -37t-42.5 -97z" />
    <glyph glyph-name="Oslashacute" unicode="&#x1fe;" horiz-adv-x="742" 
d="M544 710h149l-77 -110q91 -107 91 -247q0 -144 -97 -251t-241 -107q-82 0 -150 37l-22 -32h-148l75 108q-91 105 -91 247q0 145 98 252.5t241 107.5q79 0 149 -38zM172 355q0 -74 32 -133l245 352q-38 18 -79 18q-90 0 -144 -71.5t-54 -165.5zM568 355q0 72 -32 131
l-245 -352q36 -17 80 -17q90 0 143.5 72t53.5 166zM500 915l-93 -145l-86 26l54 119h125z" />
    <glyph glyph-name="oslashacute" unicode="&#x1ff;" horiz-adv-x="605" 
d="M50 -4l58 68q-80 78 -80 197q0 114 75.5 193t199.5 79q80 0 144 -37l27 32h76l-56 -67q83 -78 83 -200q0 -113 -75 -192t-199 -79q-85 0 -149 39l-28 -33h-76zM303 104q58 0 97.5 45t39.5 113q0 56 -29 100l-181 -236q33 -22 73 -22zM166 261q0 -57 27 -98l179 236
q-31 20 -69 20q-58 0 -97.5 -45t-39.5 -113zM430 730l-93 -145l-86 26l54 119h125z" />
    <glyph glyph-name="uni0218" unicode="&#x218;" horiz-adv-x="615" 
d="M236 -191v55q33 0 33 25v64h109v-69q0 -45 -35.5 -60t-106.5 -15zM559 636l-61 -112q-18 20 -76 45t-115 25q-113 0 -113 -80q0 -40 34.5 -58.5t127.5 -42.5q117 -30 172.5 -74.5t55.5 -135.5q0 -108 -74 -159.5t-189 -51.5q-168 0 -298 92l61 119q25 -25 96.5 -56
t142.5 -31q114 0 114 73q0 42 -40 62.5t-135 46.5q-6 1 -9 2q-106 29 -153.5 71t-47.5 121q0 105 73 164t186 59q131 0 248 -79z" />
    <glyph glyph-name="uni0219" unicode="&#x219;" horiz-adv-x="508" 
d="M177 -191v55q33 0 33 25v64h109v-69q0 -45 -35.5 -60t-106.5 -15zM267 -10q-66 0 -135 19t-115 51l54 91q100 -65 193 -65q42 0 66 15t24 43q0 26 -26.5 40t-97.5 31q-105 24 -146 55.5t-41 90.5q0 79 59.5 126t151.5 47q111 0 215 -65l-55 -83q-83 53 -161 53
q-38 0 -61.5 -15t-23.5 -44q0 -26 21.5 -38t85.5 -28q116 -28 162.5 -61t46.5 -97q0 -76 -59 -121t-158 -45z" />
    <glyph glyph-name="uni021A" unicode="&#x21a;" horiz-adv-x="620" 
d="M226 -191v55q33 0 33 25v64h109v-69q0 -45 -35.5 -60t-106.5 -15zM605 710v-121h-226v-589h-138v589h-227v121h591z" />
    <glyph glyph-name="uni021B" unicode="&#x21b;" horiz-adv-x="382" 
d="M137 -191v55q33 0 33 25v64h109v-69q0 -45 -35.5 -60t-106.5 -15zM348 133l27 -106q-81 -36 -149 -36q-60 0 -98 31.5t-38 97.5v301h-68v103h68v170h134v-170h111v-103h-111v-256q0 -51 51 -51q30 0 73 19z" />
    <glyph glyph-name="dotlessj" unicode="&#x237;" 
d="M12 -196q-80 0 -133 47l57 91q23 -22 59 -22q27 0 46 18.5t19 47.5v538h134v-528q0 -84 -52.5 -138t-129.5 -54z" />
    <glyph glyph-name="schwa" unicode="&#x259;" horiz-adv-x="600" 
d="M297 -10q-124 0 -199 78.5t-76 192.5q0 27 3 43h405q-5 60 -45 95.5t-94 35.5q-41 0 -76.5 -19.5t-47.5 -51.5l-115 32q29 62 94 99.5t150 37.5q123 0 199.5 -78.5t76.5 -191.5q0 -115 -75.5 -194t-199.5 -79zM299 87q55 0 91.5 37.5t41.5 96.5h-271q4 -59 43.5 -96.5
t94.5 -37.5z" />
    <glyph glyph-name="apostrophe" unicode="&#x2bc;" horiz-adv-x="376" 
d="M294 730l-93 -145l-85 26l34 73l-7 46h151z" />
    <glyph glyph-name="circumflex" unicode="&#x2c6;" horiz-adv-x="369" 
d="M100 597l-70 32l106 101h97l106 -101l-69 -32l-85 63z" />
    <glyph glyph-name="caron" unicode="&#x2c7;" horiz-adv-x="369" 
d="M30 698l70 32l85 -63l85 63l69 -32l-106 -101h-97z" />
    <glyph glyph-name="breve" unicode="&#x2d8;" horiz-adv-x="328" 
d="M164 656q23 0 40 21t20 53h71q0 -58 -37 -96t-94 -38t-94 38t-37 96h72q0 -30 18 -52t41 -22z" />
    <glyph glyph-name="dotaccent" unicode="&#x2d9;" horiz-adv-x="221" 
d="M171 604h-121v126h121v-126z" />
    <glyph glyph-name="ring" unicode="&#x2da;" horiz-adv-x="262" 
d="M34 653q0 36 26.5 56.5t70.5 20.5t70.5 -20.5t26.5 -56.5t-26.5 -56.5t-70.5 -20.5t-70.5 20.5t-26.5 56.5zM131 689q-17 0 -28.5 -10t-11.5 -26q0 -15 11.5 -25.5t28.5 -10.5q16 0 28.5 10.5t12.5 25.5q0 16 -11.5 26t-29.5 10z" />
    <glyph glyph-name="ogonek" unicode="&#x2db;" horiz-adv-x="290" 
d="M171 -196q-51 8 -78.5 31.5t-27.5 55.5q0 71 119 130l35 -21q-82 -48 -82 -90q0 -37 62 -40z" />
    <glyph glyph-name="tilde" unicode="&#x2dc;" horiz-adv-x="437" 
d="M284 602q-32 0 -71.5 22.5t-59.5 22.5t-32 -12.5t-14 -21t-2 -14.5h-74q0 17 10 44.5t38.5 55.5t68.5 28q32 0 71 -23.5t61 -23.5q21 0 34.5 12.5t16 22t2.5 15.5h74q0 -9 -6.5 -28t-19.5 -42.5t-39 -40.5t-58 -17z" />
    <glyph glyph-name="hungarumlaut" unicode="&#x2dd;" horiz-adv-x="366" 
d="M185 730l-86 -145l-66 26l48 119h104zM346 730l-87 -145l-65 26l47 119h105z" />
    <glyph glyph-name="uni03BC" unicode="&#x3bc;" horiz-adv-x="629" 
d="M60 -212v736h134v-299q0 -121 90 -121q38 0 74 24.5t58 70.5v325h134v-370q0 -21 8 -30t28 -10v-114q-39 -7 -65 -7q-71 0 -82 62l-3 43q-18 -40 -65 -74t-96 -34q-36 0 -59 18t-31 41l9 -261h-134z" />
    <glyph glyph-name="Ndotaccent" unicode="&#x1e44;" horiz-adv-x="763" 
d="M442 789h-121v126h121v-126zM577 0l-365 455v-455h-138v710h107l370 -466v465h138v-709h-112z" />
    <glyph glyph-name="ndotaccent" unicode="&#x1e45;" horiz-adv-x="602" 
d="M376 604h-121v126h121v-126zM547 327v-327h-134v294q0 121 -83 121q-41 0 -81 -31.5t-55 -77.5v-306h-134v524h121v-97q29 50 84 78t124 28q158 0 158 -206z" />
    <glyph glyph-name="Wgrave" unicode="&#x1e80;" horiz-adv-x="1053" 
d="M438 385l-119 323h127l80 -235l80 235h128l-121 -323l90 -227l201 552h150l-289 -710h-116l-123 298l-123 -298h-116l-288 710h149l202 -552zM491 771l-93 145h124l55 -119z" />
    <glyph glyph-name="wgrave" unicode="&#x1e81;" horiz-adv-x="845" 
d="M558 126l155 398h128l-219 -524h-110l-90 230l-89 -230h-110l-219 524h127l156 -398l64 170l-92 227h108l55 -161l56 161h108l-91 -227zM388 585l-93 145h124l55 -119z" />
    <glyph glyph-name="Wacute" unicode="&#x1e82;" horiz-adv-x="1053" 
d="M653 915l-93 -145l-86 26l54 119h125zM438 385l-119 323h127l80 -235l80 235h128l-121 -323l90 -227l201 552h150l-289 -710h-116l-123 298l-123 -298h-116l-288 710h149l202 -552z" />
    <glyph glyph-name="wacute" unicode="&#x1e83;" horiz-adv-x="845" 
d="M550 730l-93 -145l-86 26l54 119h125zM558 126l155 398h128l-219 -524h-110l-90 230l-89 -230h-110l-219 524h127l156 -398l64 170l-92 227h108l55 -161l56 161h108l-91 -227z" />
    <glyph glyph-name="Wdieresis" unicode="&#x1e84;" horiz-adv-x="1053" 
d="M485 790h-111v119h111v-119zM677 790h-111v119h111v-119zM438 385l-119 323h127l80 -235l80 235h128l-121 -323l90 -227l201 552h150l-289 -710h-116l-123 298l-123 -298h-116l-288 710h149l202 -552z" />
    <glyph glyph-name="wdieresis" unicode="&#x1e85;" horiz-adv-x="845" 
d="M382 604h-111v119h111v-119zM574 604h-111v119h111v-119zM558 126l155 398h128l-219 -524h-110l-90 230l-89 -230h-110l-219 524h127l156 -398l64 170l-92 227h108l55 -161l56 161h108l-91 -227z" />
    <glyph glyph-name="Etilde" unicode="&#x1ebc;" horiz-adv-x="604" 
d="M212 121h355v-121h-493v710h484v-121h-346v-171h299v-112h-299v-185zM389 787q-32 0 -71.5 22.5t-59.5 22.5t-32 -12.5t-14 -21t-2 -14.5h-74q0 17 10 44.5t38.5 55.5t68.5 28q32 0 71 -23.5t61 -23.5q21 0 34.5 12.5t16 22t2.5 15.5h74q0 -9 -6.5 -28t-19.5 -42.5
t-39 -40.5t-58 -17z" />
    <glyph glyph-name="etilde" unicode="&#x1ebd;" horiz-adv-x="600" 
d="M304 -10q-123 0 -199.5 78.5t-76.5 190.5q0 115 76 194.5t201 79.5q124 0 198.5 -79t74.5 -190q0 -28 -3 -45h-405q5 -60 45 -95.5t94 -35.5q41 0 76.5 19.5t47.5 51.5l115 -32q-29 -62 -94 -99.5t-150 -37.5zM168 306h272q-5 58 -43.5 94t-93.5 36t-93 -36t-42 -94z
M366 602q-32 0 -71.5 22.5t-59.5 22.5t-32 -12.5t-14 -21t-2 -14.5h-74q0 17 10 44.5t38.5 55.5t68.5 28q32 0 71 -23.5t61 -23.5q21 0 34.5 12.5t16 22t2.5 15.5h74q0 -9 -6.5 -28t-19.5 -42.5t-39 -40.5t-58 -17z" />
    <glyph glyph-name="Ygrave" unicode="&#x1ef2;" horiz-adv-x="644" 
d="M-4 710h150l175 -342l178 342h149l-258 -462v-248h-137v250zM287 771l-93 145h124l55 -119z" />
    <glyph glyph-name="ygrave" unicode="&#x1ef3;" horiz-adv-x="544" 
d="M67 -218v116q31 -9 59 -9q27 0 44 22t38 89l-208 524h138l143 -408l126 408h126l-221 -628q-21 -59 -67 -92t-107 -33q-35 0 -71 11zM247 585l-93 145h124l55 -119z" />
    <glyph glyph-name="Ytilde" unicode="&#x1ef8;" horiz-adv-x="644" 
d="M-4 710h150l175 -342l178 342h149l-258 -462v-248h-137v250zM384 787q-32 0 -71.5 22.5t-59.5 22.5t-32 -12.5t-14 -21t-2 -14.5h-74q0 17 10 44.5t38.5 55.5t68.5 28q32 0 71 -23.5t61 -23.5q21 0 34.5 12.5t16 22t2.5 15.5h74q0 -9 -6.5 -28t-19.5 -42.5t-39 -40.5
t-58 -17z" />
    <glyph glyph-name="ytilde" unicode="&#x1ef9;" horiz-adv-x="544" 
d="M67 -218v116q31 -9 59 -9q27 0 44 22t38 89l-208 524h138l143 -408l126 408h126l-221 -628q-21 -59 -67 -92t-107 -33q-35 0 -71 11zM344 602q-32 0 -71.5 22.5t-59.5 22.5t-32 -12.5t-14 -21t-2 -14.5h-74q0 17 10 44.5t38.5 55.5t68.5 28q32 0 71 -23.5t61 -23.5
q21 0 34.5 12.5t16 22t2.5 15.5h74q0 -9 -6.5 -28t-19.5 -42.5t-39 -40.5t-58 -17z" />
    <glyph glyph-name="endash" unicode="&#x2013;" horiz-adv-x="602" 
d="M545 214h-488v121h488v-121z" />
    <glyph glyph-name="emdash" unicode="&#x2014;" horiz-adv-x="927" 
d="M869 214h-812v121h812v-121z" />
    <glyph glyph-name="quoteleft" unicode="&#x2018;" horiz-adv-x="243" 
d="M190 591v-95q-57 0 -100.5 24t-43.5 78v132h110v-107q2 -32 34 -32z" />
    <glyph glyph-name="quoteright" unicode="&#x2019;" horiz-adv-x="244" 
d="M44 635v95q57 0 100.5 -24t43.5 -78v-132h-110v107q-2 32 -34 32z" />
    <glyph glyph-name="quotesinglbase" unicode="&#x201a;" horiz-adv-x="236" 
d="M32 -113v95q33 0 33 31v131h110v-155q0 -54 -43.5 -78t-99.5 -24z" />
    <glyph glyph-name="quotedblleft" unicode="&#x201c;" horiz-adv-x="436" 
d="M190 591v-95q-57 0 -100.5 24t-43.5 78v132h110v-107q2 -32 34 -32zM384 591v-95q-57 0 -100.5 24t-43.5 78v132h110v-107q2 -32 34 -32z" />
    <glyph glyph-name="quotedblright" unicode="&#x201d;" horiz-adv-x="438" 
d="M44 635v95q57 0 100.5 -24t43.5 -78v-132h-110v107q-2 32 -34 32zM237 635v95q57 0 100.5 -24t43.5 -78v-132h-110v107q-2 32 -34 32z" />
    <glyph glyph-name="quotedblbase" unicode="&#x201e;" horiz-adv-x="418" 
d="M32 -113v95q33 0 33 31v131h110v-155q0 -54 -43.5 -78t-99.5 -24zM214 -113v95q33 0 33 31v131h110v-155q0 -54 -43.5 -78t-99.5 -24z" />
    <glyph glyph-name="dagger" unicode="&#x2020;" horiz-adv-x="466" 
d="M297 -130h-128v341h-132v120h132v444h128v-444h131v-120h-131v-341z" />
    <glyph glyph-name="daggerdbl" unicode="&#x2021;" horiz-adv-x="476" 
d="M302 -130h-127v232h-132v120h132v112h-132v121h132v320h127v-320h131v-121h-131v-112h131v-120h-131v-232z" />
    <glyph glyph-name="bullet" unicode="&#x2022;" horiz-adv-x="363" 
d="M286 350q0 -44 -30.5 -74.5t-73.5 -30.5t-74 31t-31 74t31 73.5t74 30.5t73.5 -30.5t30.5 -73.5z" />
    <glyph glyph-name="ellipsis" unicode="&#x2026;" horiz-adv-x="601" 
d="M167 0h-110v144h110v-144zM355 0h-109v144h109v-144zM544 0h-111v144h111v-144z" />
    <glyph glyph-name="perthousand" unicode="&#x2030;" horiz-adv-x="1172" 
d="M207 417q-69 0 -117 44t-48 108q0 63 48 107t117 44t117 -44t48 -107q0 -64 -48 -108t-117 -44zM207 484q29 0 50 25t21 60q0 34 -21 59t-50 25t-50 -25t-21 -59q0 -35 21 -60t50 -25zM593 -10q-69 0 -117 44t-48 107q0 64 48 108t117 44t117 -44t48 -108q0 -63 -48 -107
t-117 -44zM593 57q29 0 50 25t21 59q0 35 -21 60t-50 25t-50 -25t-21 -60t21 -59.5t50 -24.5zM974 -10q-68 0 -116 44t-48 107q0 64 48 108t116 44q70 0 117.5 -44t47.5 -108q0 -63 -47.5 -107t-117.5 -44zM974 57q30 0 50.5 25t20.5 59q0 35 -21 60t-50 25t-50 -25t-21 -60
q0 -34 21 -59t50 -25zM159 -7l-61 54l282 329l260 342l61 -54l-276 -322z" />
    <glyph glyph-name="guilsinglleft" unicode="&#x2039;" horiz-adv-x="357" 
d="M37 223v65l263 189v-109l-157 -109l157 -103v-110z" />
    <glyph glyph-name="guilsinglright" unicode="&#x203a;" horiz-adv-x="357" 
d="M321 288v-65l-264 -177v110l158 103l-158 109v109z" />
    <glyph glyph-name="fraction" unicode="&#x2044;" horiz-adv-x="200" 
d="M-140 -7l-61 54l282 329l260 342l61 -54l-276 -322z" />
    <glyph glyph-name="zerosuperior" unicode="&#x2070;" horiz-adv-x="488" 
d="M244 303q-98 0 -155 67t-57 146q0 82 59.5 148t152.5 66q97 0 154.5 -68t57.5 -146q0 -82 -59.5 -147.5t-152.5 -65.5zM114 516q0 -52 34.5 -92.5t95.5 -40.5q63 0 97 42t34 91q0 52 -35.5 93.5t-95.5 41.5q-62 0 -96 -42.5t-34 -92.5z" />
    <glyph glyph-name="foursuperior" unicode="&#x2074;" horiz-adv-x="410" 
d="M321 310h-79v91h-221v78l246 251h54v-251h61v-78h-61v-91zM245 633l-147 -154h147v154z" />
    <glyph glyph-name="fivesuperior" unicode="&#x2075;" horiz-adv-x="396" 
d="M204 582q70 0 117 -38.5t47 -97.5q0 -63 -51.5 -103t-129.5 -40q-52 0 -95 19.5t-66 52.5l47 53q43 -48 118 -48q42 0 69 18t27 52t-27 53t-61 19q-27 0 -52.5 -12.5t-38.5 -32.5h-70q6 32 28.5 125t28.5 128h242v-79h-184l-24 -87q27 18 75 18z" />
    <glyph glyph-name="sixsuperior" unicode="&#x2076;" horiz-adv-x="425" 
d="M396 446q0 -62 -52 -104.5t-129 -42.5q-83 0 -132 52.5t-49 144.5q0 111 51.5 172.5t140.5 61.5q97 0 149 -64l-46 -56q-34 45 -106 45q-52 0 -83 -29t-32 -80q15 19 46.5 29.5t64.5 10.5q77 0 127 -40t50 -100zM217 372q42 0 72.5 22t30.5 52t-30 50.5t-74 20.5
q-43 0 -73.5 -20.5t-30.5 -50.5t31.5 -52t73.5 -22z" />
    <glyph glyph-name="sevensuperior" unicode="&#x2077;" horiz-adv-x="385" 
d="M50 310l213 341h-239v79h364l-248 -420h-90z" />
    <glyph glyph-name="eightsuperior" unicode="&#x2078;" horiz-adv-x="421" 
d="M388 432q0 -55 -52.5 -92t-125.5 -37q-75 0 -126.5 38t-51.5 93q0 64 85 100q-69 27 -69 81q0 49 50.5 82t111.5 33t111.5 -32t50.5 -81q0 -57 -70 -83q86 -34 86 -102zM307 440q0 26 -29.5 42.5t-67.5 16.5q-40 0 -69 -16.5t-29 -42.5q0 -25 30.5 -41t68.5 -16t67 16
t29 41zM128 609q0 -21 25 -33t57 -12q31 0 56.5 12.5t25.5 32.5t-24.5 32.5t-57.5 12.5q-34 0 -58 -12.5t-24 -32.5z" />
    <glyph glyph-name="ninesuperior" unicode="&#x2079;" horiz-adv-x="425" 
d="M30 583q0 62 52 104.5t128 42.5q83 0 132 -52.5t49 -144.5q0 -111 -51 -172.5t-140 -61.5q-98 0 -150 65l47 55q32 -45 106 -45q51 0 82 29.5t32 79.5q-15 -18 -46.5 -29t-65.5 -11q-75 0 -125 40t-50 100zM209 657q-43 0 -73 -22t-30 -52q0 -29 30.5 -50t73.5 -21
q42 0 72.5 21t30.5 50q0 30 -31 52t-73 22z" />
    <glyph glyph-name="zeroinferior" unicode="&#x2080;" horiz-adv-x="488" 
d="M244 -5q-98 0 -155 66.5t-57 146.5q0 81 59.5 147t152.5 66q97 0 154.5 -67.5t57.5 -145.5q0 -82 -59 -147.5t-153 -65.5zM114 208q0 -52 34.5 -93t95.5 -41q63 0 97 42t34 92q0 52 -35.5 93t-95.5 41q-62 0 -96 -42.5t-34 -91.5z" />
    <glyph glyph-name="oneinferior" unicode="&#x2081;" horiz-adv-x="332" 
d="M224 78h89v-78h-265v78h96v262q-13 -16 -49.5 -33.5t-62.5 -17.5v79q22 0 50 14t44.5 27t17.5 16h80v-347z" />
    <glyph glyph-name="twoinferior" unicode="&#x2082;" horiz-adv-x="422" 
d="M384 0h-354q0 81 29 124.5t103 73.5q8 3 26 10t27 11t23.5 10.5t22.5 12.5t16.5 14t12 17.5t3.5 20.5q0 55 -86 55q-73 0 -123 -50l-51 58q20 25 69 47t117 22q79 0 121.5 -35t42.5 -98q0 -31 -12.5 -55t-35 -39t-41 -23t-43.5 -16q-91 -29 -91 -82h224v-78z" />
    <glyph glyph-name="threeinferior" unicode="&#x2083;" horiz-adv-x="408" 
d="M193 -5q-63 0 -106.5 20.5t-57.5 58.5l43 58q5 -18 38 -38t81 -20q44 0 73.5 13.5t29.5 38.5q0 56 -149 56h-24v72h24q134 0 134 52q0 22 -26 34.5t-59 12.5q-72 0 -113 -49l-51 63q22 28 67 44t97 16q73 0 121.5 -33t48.5 -82q0 -73 -95 -90q48 -7 76.5 -37t28.5 -71
q0 -58 -53 -88.5t-128 -30.5z" />
    <glyph glyph-name="fourinferior" unicode="&#x2084;" horiz-adv-x="410" 
d="M321 0h-79v93h-221v77l246 252h54v-251h61v-78h-61v-93zM245 324l-147 -153h147v153z" />
    <glyph glyph-name="fiveinferior" unicode="&#x2085;" horiz-adv-x="396" 
d="M203 273q70 0 117 -38.5t47 -97.5q0 -63 -51 -102.5t-130 -39.5q-52 0 -95 19t-66 52l47 53q44 -49 118 -49q42 0 69 18.5t27 52.5t-27 53t-61 19q-27 0 -52.5 -12.5t-38.5 -32.5h-70q6 32 28.5 125.5t28.5 128.5h242v-80h-184l-24 -87q27 18 75 18z" />
    <glyph glyph-name="sixinferior" unicode="&#x2086;" horiz-adv-x="425" 
d="M396 141q0 -62 -52 -104t-129 -42q-83 0 -132 51.5t-49 144.5q0 111 51.5 172.5t140.5 61.5q98 0 149 -65l-46 -55q-33 44 -106 44q-52 0 -83 -28.5t-32 -79.5q15 19 46.5 29.5t64.5 10.5q77 0 127 -40t50 -100zM217 67q42 0 72.5 22t30.5 51q0 30 -30.5 51t-73.5 21
t-73.5 -21t-30.5 -50q0 -30 31.5 -52t73.5 -22z" />
    <glyph glyph-name="seveninferior" unicode="&#x2087;" horiz-adv-x="387" 
d="M50 0l214 342h-239v80h363l-248 -422h-90z" />
    <glyph glyph-name="eightinferior" unicode="&#x2088;" horiz-adv-x="421" 
d="M388 123q0 -55 -52.5 -91.5t-125.5 -36.5q-75 0 -126.5 37.5t-51.5 92.5q0 63 85 101q-69 27 -69 81q0 49 50.5 81.5t111.5 32.5t111.5 -32t50.5 -81q0 -56 -70 -82q86 -36 86 -103zM307 132q0 26 -29.5 42t-67.5 16q-40 0 -69 -16.5t-29 -42.5q0 -25 30.5 -41t68.5 -16
t67 16.5t29 41.5zM128 300q0 -21 25 -33t57 -12q31 0 56.5 12.5t25.5 32.5t-24.5 32.5t-57.5 12.5q-34 0 -58 -12.5t-24 -32.5z" />
    <glyph glyph-name="nineinferior" unicode="&#x2089;" horiz-adv-x="425" 
d="M30 278q0 62 52 104.5t128 42.5q83 0 132 -52.5t49 -144.5q0 -111 -51 -172t-140 -61q-100 0 -150 64l47 55q31 -44 106 -44q51 0 82 28.5t32 79.5q-15 -18 -46.5 -29.5t-65.5 -11.5q-75 0 -125 40.5t-50 100.5zM209 352q-42 0 -72.5 -22t-30.5 -52q0 -29 30.5 -50
t73.5 -21q42 0 72.5 21t30.5 50t-31 51.5t-73 22.5z" />
    <glyph glyph-name="Euro" unicode="&#x20ac;" horiz-adv-x="780" 
d="M77 436h49q24 117 112.5 197.5t219.5 80.5q92 0 162.5 -42t104.5 -113l-106 -73q-23 55 -68.5 80.5t-96.5 25.5q-71 0 -119 -44t-67 -112h259l-30 -73h-240q0 -31 3 -52h235l-30 -74h-182q26 -55 71.5 -88t102.5 -33q51 0 97.5 27t68.5 81l113 -65q-31 -76 -113 -120.5
t-170 -44.5q-110 0 -194 69t-120 174h-105l30 74h57q-3 24 -3 52h-71z" />
    <glyph glyph-name="trademark" unicode="&#x2122;" horiz-adv-x="826" 
d="M337 712v-87h-95v-214h-88v214h-95v87h278zM569 553l58 157h129v-299h-87v187l-64 -145h-71l-64 145v-187h-87v299h128z" />
    <glyph glyph-name="onethird" unicode="&#x2153;" horiz-adv-x="959" 
d="M740 -5q-63 0 -106.5 20.5t-57.5 58.5l43 58q5 -18 38 -38t81 -20q44 0 73.5 13.5t29.5 38.5q0 56 -149 56h-24v72h24q134 0 134 52q0 22 -26 34.5t-59 12.5q-72 0 -113 -49l-51 63q22 28 67 44t97 16q73 0 121.5 -33t48.5 -82q0 -73 -95 -90q48 -7 76.5 -37t28.5 -71
q0 -58 -53 -88.5t-128 -30.5zM219 384h71v-78h-229v78h78v261q-12 -15 -42.5 -33t-51.5 -18v80q18 0 41.5 14t37.5 27t15 16h80v-347zM195 -7l-61 54l282 329l260 342l61 -54l-276 -322z" />
    <glyph glyph-name="twothirds" unicode="&#x2154;" horiz-adv-x="975" 
d="M755 -5q-63 0 -106.5 20.5t-57.5 58.5l43 58q5 -18 38 -38t81 -20q44 0 73.5 13.5t29.5 38.5q0 56 -149 56h-24v72h24q134 0 134 52q0 22 -26 34.5t-59 12.5q-72 0 -113 -49l-51 63q22 28 67 44t97 16q73 0 121.5 -33t48.5 -82q0 -73 -95 -90q48 -7 76.5 -37t28.5 -71
q0 -58 -53 -88.5t-128 -30.5zM363 305h-320q0 81 27 124.5t96 73.5q8 4 29 12.5t30 12.5t24.5 13t22.5 16t12.5 18t5.5 24q0 55 -80 55q-66 0 -117 -49l-47 57q18 25 64 47t110 22q75 0 115 -35t40 -98q0 -31 -11.5 -55t-33 -39t-39 -23.5t-41.5 -16.5q-85 -27 -85 -81h198
v-78zM250 -7l-61 54l282 329l260 342l61 -54l-276 -322z" />
    <glyph glyph-name="oneeighth" unicode="&#x215b;" horiz-adv-x="955" 
d="M919 123q0 -55 -52.5 -91.5t-125.5 -36.5q-75 0 -126.5 37.5t-51.5 92.5q0 63 85 101q-69 27 -69 81q0 49 50.5 81.5t111.5 32.5t111.5 -32t50.5 -81q0 -56 -70 -82q86 -36 86 -103zM838 132q0 26 -29.5 42t-67.5 16q-40 0 -69 -16.5t-29 -42.5q0 -25 30.5 -41t68.5 -16
t67 16.5t29 41.5zM659 300q0 -21 25 -33t57 -12q31 0 56.5 12.5t25.5 32.5t-24.5 32.5t-57.5 12.5q-34 0 -58 -12.5t-24 -32.5zM218 384h71v-78h-229v78h78v261q-12 -15 -42.5 -33t-51.5 -18v80q18 0 41.5 14t37.5 27t15 16h80v-347zM207 -7l-61 54l282 329l260 342l61 -54
l-276 -322z" />
    <glyph glyph-name="threeeighths" unicode="&#x215c;" horiz-adv-x="968" 
d="M206 298q-63 0 -106.5 20.5t-57.5 58.5l43 59q5 -17 37.5 -37t81.5 -20q44 0 73.5 13.5t29.5 37.5q0 56 -149 56h-24v73h24q134 0 134 52q0 22 -26 34t-59 12q-72 0 -113 -49l-51 64q22 28 67 43.5t97 15.5q73 0 121.5 -33t48.5 -83q0 -35 -25 -58t-70 -31
q48 -7 76.5 -37t28.5 -71q0 -58 -53 -89t-128 -31zM931 123q0 -55 -52.5 -91.5t-125.5 -36.5q-75 0 -126.5 37.5t-51.5 92.5q0 63 85 101q-69 27 -69 81q0 49 50.5 81.5t111.5 32.5t111.5 -32t50.5 -81q0 -56 -70 -82q86 -36 86 -103zM850 132q0 26 -29.5 42t-67.5 16
q-40 0 -69 -16.5t-29 -42.5q0 -25 30.5 -41t68.5 -16t67 16.5t29 41.5zM671 300q0 -21 25 -33t57 -12q31 0 56.5 12.5t25.5 32.5t-24.5 32.5t-57.5 12.5q-34 0 -58 -12.5t-24 -32.5zM243 -7l-61 54l282 329l260 342l61 -54l-276 -322z" />
    <glyph glyph-name="fiveeighths" unicode="&#x215d;" horiz-adv-x="982" 
d="M944 123q0 -55 -52.5 -91.5t-125.5 -36.5q-75 0 -126.5 37.5t-51.5 92.5q0 63 85 101q-69 27 -69 81q0 49 50.5 81.5t111.5 32.5t111.5 -32t50.5 -81q0 -56 -70 -82q86 -36 86 -103zM863 132q0 26 -29.5 42t-67.5 16q-40 0 -69 -16.5t-29 -42.5q0 -25 30.5 -41t68.5 -16
t67 16.5t29 41.5zM684 300q0 -21 25 -33t57 -12q31 0 56.5 12.5t25.5 32.5t-24.5 32.5t-57.5 12.5q-34 0 -58 -12.5t-24 -32.5zM214 582q70 0 117 -38.5t47 -97.5q0 -63 -51.5 -103t-129.5 -40q-52 0 -95 19.5t-66 52.5l47 53q43 -48 118 -48q42 0 69 18t27 52t-27 53
t-61 19q-27 0 -52.5 -12.5t-38.5 -32.5h-70q6 32 28.5 125t28.5 128h242v-79h-184l-24 -87q27 18 75 18zM243 -7l-61 54l282 329l260 342l61 -54l-276 -322z" />
    <glyph glyph-name="seveneighths" unicode="&#x215e;" horiz-adv-x="931" 
d="M895 123q0 -55 -52.5 -91.5t-125.5 -36.5q-75 0 -126.5 37.5t-51.5 92.5q0 63 85 101q-69 27 -69 81q0 49 50.5 81.5t111.5 32.5t111.5 -32t50.5 -81q0 -56 -70 -82q86 -36 86 -103zM814 132q0 26 -29.5 42t-67.5 16q-40 0 -69 -16.5t-29 -42.5q0 -25 30.5 -41t68.5 -16
t67 16.5t29 41.5zM635 300q0 -21 25 -33t57 -12q31 0 56.5 12.5t25.5 32.5t-24.5 32.5t-57.5 12.5q-34 0 -58 -12.5t-24 -32.5zM156 -7l-61 54l282 329l260 342l61 -54l-276 -322zM68 310l213 341h-239v79h364l-248 -420h-90z" />
    <glyph glyph-name="minus" unicode="&#x2212;" horiz-adv-x="528" 
d="M466 274h-404v107h404v-107z" />
    <glyph glyph-name="uni2215" unicode="&#x2215;" horiz-adv-x="616" 
d="M61 -7l-77 63l571 662l77 -64z" />
    <glyph glyph-name="uni2219" unicode="&#x2219;" horiz-adv-x="224" 
d="M167 242h-110v151h110v-151z" />
    <glyph glyph-name="commaaccent" unicode="&#xf6c3;" horiz-adv-x="201" 
d="M32 -191v55q33 0 33 25v64h109v-69q0 -45 -35.5 -60t-106.5 -15z" />
    <glyph glyph-name="s_t" unicode="&#xfb06;" horiz-adv-x="864" 
d="M830 133l27 -106q-81 -36 -148 -36q-61 0 -98.5 31.5t-37.5 97.5v301h-69v103h69q-1 91 -15.5 122.5t-62.5 31.5q-47 0 -71 -24.5t-24 -63.5q0 -34 15 -67.5t31 -51.5l-52 -84q-76 52 -148 52q-87 0 -87 -59q0 -23 17.5 -37.5t36.5 -19t57 -11.5q104 -17 152 -51.5
t48 -102.5q0 -81 -58.5 -124.5t-150.5 -43.5q-63 0 -129 19.5t-110 49.5l51 91q98 -64 185 -64q39 0 64.5 14t25.5 44q0 10 -2.5 18t-10.5 14.5t-13.5 10.5t-19.5 8l-21 6t-26.5 6t-26.5 6q-100 23 -143.5 53t-43.5 94q0 80 58.5 127t138.5 47q79 0 130 -32q-25 48 -25 92
q0 64 45 104t140 40q61 0 97.5 -13t54 -43.5t22.5 -64.5t5 -93h110v-103h-110v-256q0 -51 51 -51q29 0 72 19z" />
    <glyph glyph-name="A.sc" horiz-adv-x="593" 
d="M132 0h-129l244 559h99l243 -559h-128l-56 131h-217zM376 236l-79 176l-82 -176h161z" />
    <glyph glyph-name="B.sc" horiz-adv-x="596" 
d="M561 143q0 -68 -56.5 -105.5t-142.5 -37.5h-295v559h329q61 0 100 -44t39 -100q0 -41 -23 -76t-65 -52q54 -15 84 -52t30 -92zM439 168q0 27 -20.5 47t-50.5 20h-180v-133h174q32 0 54.5 19t22.5 47zM350 455h-162v-125h157q30 0 50 16.5t20 46.5q0 28 -18.5 45t-46.5 17
z" />
    <glyph glyph-name="C.sc" horiz-adv-x="596" 
d="M32 284q0 109 81.5 193.5t215.5 84.5q82 0 143.5 -33t90.5 -89l-93 -65q-38 79 -144 79q-80 0 -125.5 -52.5t-45.5 -121.5q0 -73 49 -125t124 -52q44 0 85 20t60 61l99 -59q-27 -60 -98.5 -95t-149.5 -35q-124 0 -208 88.5t-84 200.5z" />
    <glyph glyph-name="D.sc" horiz-adv-x="633" 
d="M293 0h-226v559h226q146 0 226 -78.5t80 -199.5q0 -127 -83.5 -204t-222.5 -77zM476 281q0 77 -49 124.5t-134 47.5h-105v-347h105q87 0 135 48.5t48 126.5z" />
    <glyph glyph-name="E.sc" horiz-adv-x="537" 
d="M188 106h310v-106h-431v559h423v-106h-302v-119h261v-99h-261v-129z" />
    <glyph glyph-name="F.sc" horiz-adv-x="506" 
d="M188 0h-121v559h417v-106h-296v-130h247v-99h-247v-224z" />
    <glyph glyph-name="G.alt" horiz-adv-x="722" 
d="M382 -5q-150 0 -250 109.5t-100 254.5q0 143 96.5 249.5t248.5 106.5q90 0 160 -39t112 -110l-109 -86q-64 113 -171 113q-90 0 -143.5 -71.5t-53.5 -166.5q0 -59 21.5 -112t67.5 -89.5t108 -36.5q66 0 116.5 41t65.5 97h-156v120h305q0 -1 -0.5 -33t-0.5 -34
q-5 -131 -93.5 -222t-223.5 -91z" />
    <glyph glyph-name="G.sc" horiz-adv-x="622" 
d="M478 0v57q-70 -61 -162 -61q-116 0 -199.5 86t-83.5 201q0 117 84 198.5t207 81.5q82 0 142.5 -32.5t91.5 -89.5l-92 -68q-21 39 -60 60.5t-86 21.5q-73 0 -119 -51t-46 -125q0 -75 49 -125t123 -50q83 0 151 71v27h-124v88h224v-290h-100z" />
    <glyph glyph-name="H.sc" horiz-adv-x="656" 
d="M468 559h120v-559h-120v232h-280v-232h-121v559h121v-220h280v220z" />
    <glyph glyph-name="I.sc" horiz-adv-x="255" 
d="M188 0h-121v559h121v-559z" />
    <glyph glyph-name="J.sc" horiz-adv-x="440" 
d="M14 25l27 99q50 -25 108 -25q69 0 89 38.5t20 137.5v284h121v-284q0 -72 -7.5 -117.5t-30.5 -86.5t-70 -60t-122 -19q-79 0 -135 33z" />
    <glyph glyph-name="K.sc" horiz-adv-x="593" 
d="M188 0h-121v559h121v-261l267 261h127l-238 -249l252 -310h-127l-198 242l-83 -74v-168z" />
    <glyph glyph-name="L.sc" horiz-adv-x="491" 
d="M474 0h-407v559h121v-453h286v-106z" />
    <glyph glyph-name="caron.alt" horiz-adv-x="255" 
d="M226 730l-93 -145l-86 26l54 119h125z" />
    <glyph glyph-name="M.sc" horiz-adv-x="760" 
d="M693 0h-120v349l-160 -256h-66l-159 256v-349h-121v559h131l183 -302l183 302h129v-559z" />
    <glyph glyph-name="N.sc" horiz-adv-x="671" 
d="M506 0l-318 335v-335h-121v559h94l322 -344v344h121v-559h-98z" />
    <glyph glyph-name="O.sc" horiz-adv-x="653" 
d="M326 -4q-127 0 -210.5 86t-83.5 198q0 113 85.5 197.5t210.5 84.5q128 0 210.5 -86.5t82.5 -198.5q0 -113 -84.5 -197t-210.5 -84zM155 279q0 -71 47.5 -123.5t125.5 -52.5t124 53.5t46 123.5q0 71 -47 122.5t-124 51.5q-78 0 -125 -53t-47 -122z" />
    <glyph glyph-name="P.sc" horiz-adv-x="549" 
d="M188 0h-121v559h262q84 0 141.5 -58t57.5 -130q0 -75 -55 -131.5t-138 -56.5h-147v-183zM188 453v-164h139q35 0 56.5 21.5t21.5 60.5t-24.5 60.5t-58.5 21.5h-134z" />
    <glyph glyph-name="Q.sc" horiz-adv-x="655" 
d="M519 0l-37 38q-71 -42 -156 -42q-127 0 -210.5 86t-83.5 198q0 114 85.5 198.5t210.5 84.5q128 0 210.5 -87t82.5 -199q0 -104 -74 -186l87 -91h-115zM328 104q43 0 75 17l-89 94h115l38 -40q31 48 31 105q0 71 -47.5 123t-123.5 52q-78 0 -125 -53.5t-47 -122.5
q0 -71 47.5 -123t125.5 -52z" />
    <glyph glyph-name="R.sc" horiz-adv-x="595" 
d="M188 0h-121v559h275q83 0 140 -58t57 -130q0 -53 -30 -97t-81 -65l146 -209h-138l-130 183h-118v-183zM188 453v-164h151q33 0 55.5 23.5t22.5 58.5t-25 58.5t-58 23.5h-146z" />
    <glyph glyph-name="S.sc" horiz-adv-x="536" 
d="M482 501l-53 -99q-20 18 -66 36t-98 18q-90 0 -90 -53q0 -15 8 -26t30 -19.5t40 -13.5t58 -14q98 -22 145.5 -58.5t47.5 -108.5q0 -87 -63.5 -128.5t-161.5 -41.5q-141 0 -254 71l55 105q23 -24 80.5 -45.5t120.5 -21.5q93 0 93 50q0 27 -29.5 41t-105.5 33
q-103 26 -146 61t-43 99q0 84 62.5 130.5t157.5 46.5q111 0 212 -62z" />
    <glyph glyph-name="T.sc" horiz-adv-x="552" 
d="M534 559v-106h-197v-453h-121v453h-198v106h516z" />
    <glyph glyph-name="U.sc" horiz-adv-x="648" 
d="M323 103q78 0 112.5 48t34.5 122v286h121v-286q0 -123 -66.5 -200t-200.5 -77q-136 0 -201.5 78.5t-65.5 198.5v286h121v-286q0 -74 35 -122t110 -48z" />
    <glyph glyph-name="V.sc" horiz-adv-x="595" 
d="M3 559h128l167 -389l165 389h127l-242 -559h-102z" />
    <glyph glyph-name="W.alt" horiz-adv-x="1101" 
d="M940 710h156l-223 -710h-142l-182 485l-178 -485h-143l-222 710h155l152 -504l161 504h149l166 -503z" />
    <glyph glyph-name="W.sc" horiz-adv-x="928" 
d="M386 300l-104 257h112l69 -181l70 181h112l-105 -257l73 -155l180 414h132l-252 -559h-102l-107 225l-107 -225h-102l-252 559h131l181 -414z" />
    <glyph glyph-name="X.sc" horiz-adv-x="577" 
d="M3 559h132l154 -198l153 198h132l-222 -283l215 -276h-131l-147 190l-147 -190h-132l214 276z" />
    <glyph glyph-name="Y.sc" horiz-adv-x="569" 
d="M1 559h130l153 -261l155 261h132l-226 -366v-193h-121v194z" />
    <glyph glyph-name="Z.sc" horiz-adv-x="560" 
d="M32 0v91l349 362h-339v106h480v-91l-338 -362h340v-106h-492z" />
    <glyph glyph-name="a.alt" horiz-adv-x="634" 
d="M277 -10q-108 0 -178 78.5t-70 193.5q0 114 67.5 192.5t167.5 78.5q58 0 104 -27.5t72 -74.5v86h134v-517h-133v85q-54 -95 -164 -95zM441 192v124q-18 46 -55 74.5t-80 28.5q-60 0 -99.5 -48t-39.5 -112q0 -65 41 -110t103 -45q85 0 130 88z" />
    <glyph glyph-name="a.alt2" horiz-adv-x="564" 
d="M510 0h-129v73q-59 -83 -177 -83q-77 0 -128 47.5t-51 118.5q0 78 64.5 123.5t158.5 45.5q76 0 128 -23v30q0 52 -30 80t-87 28q-79 0 -164 -59l-41 85q102 67 218 67q114 0 176 -56.5t62 -159.5v-317zM354 132q22 17 22 38v60q-51 20 -106 20q-48 0 -83 -22t-35 -61
q0 -35 26 -57t64 -22q75 0 112 44z" />
    <glyph glyph-name="c_t" horiz-adv-x="945" 
d="M911 133l27 -106q-81 -36 -149 -36q-60 0 -97.5 31.5t-37.5 97.5v301h-69v103h69q0 34 -1.5 54t-6 41.5t-13.5 32.5t-25 18.5t-40 7.5q-45 0 -66 -26t-21 -68q0 -65 60 -185l-131 -40q-36 60 -109 60q-60 0 -97.5 -45.5t-37.5 -112.5t39.5 -112t98.5 -45q33 0 64.5 17
t43.5 45l131 -40q-28 -62 -92 -99t-147 -37q-124 0 -200 80.5t-76 191.5q0 112 74.5 191.5t203.5 79.5q80 0 145 -40q-27 54 -27 97q0 69 47 108.5t135 39.5q38 0 67 -7t48 -16t32.5 -27.5t20 -33t10 -41t4 -43t0.5 -46.5h110v-103h-110v-256q0 -51 51 -51q29 0 72 19z" />
    <glyph glyph-name="d.alt" horiz-adv-x="633" 
d="M573 0h-133v82q-56 -92 -163 -92q-108 0 -178 78.5t-70 193.5q0 114 66.5 192.5t166.5 78.5q57 0 103 -27.5t74 -73.5v298h134v-730zM440 192v125q-16 44 -55.5 73t-81.5 29q-58 0 -97 -48t-39 -112q0 -66 41.5 -110.5t103.5 -44.5q40 0 77.5 25t50.5 63z" />
    <glyph glyph-name="eight.lnum" horiz-adv-x="605" 
d="M560 210q0 -97 -75.5 -158t-183.5 -61q-107 0 -182 63.5t-75 160.5q0 55 33 98.5t79 66.5q-39 19 -64.5 55t-25.5 78q0 89 73.5 143t162.5 54q90 0 163.5 -53t73.5 -143q0 -42 -26 -79t-65 -55q48 -24 80 -68.5t32 -101.5zM424 218q0 48 -36.5 77t-85.5 29
q-50 0 -86 -29.5t-36 -76.5q0 -46 37 -76t86 -30q48 0 84.5 30.5t36.5 75.5zM202 509q0 -39 30.5 -61.5t69.5 -22.5t70 23t31 62q0 36 -29.5 58.5t-71.5 22.5t-71 -23t-29 -59z" />
    <glyph glyph-name="five.lnum" horiz-adv-x="571" 
d="M297 459q101 0 167.5 -64t66.5 -164q0 -107 -74 -174t-188 -67q-77 0 -139 33t-94 91l77 80q29 -39 70.5 -62t86.5 -23q54 0 88.5 33t34.5 86q0 51 -32.5 83.5t-82.5 32.5q-70 0 -107 -56h-117l82 422h350v-122h-253l-28 -159q27 30 92 30z" />
    <glyph glyph-name="four.lnum" horiz-adv-x="583" 
d="M458 0h-134v161h-299v120l341 429h92v-428h88v-121h-88v-161zM339 508l-179 -226h179v226z" />
    <glyph glyph-name="j.alt" 
d="M60 -213v730h134v-730h-134zM60 597v129h133v-129h-133z" />
    <glyph glyph-name="l.alt" horiz-adv-x="259" 
d="M62 0v730h134v-730h-134z" />
    <glyph glyph-name="nine.lnum" horiz-adv-x="607" 
d="M40 468q0 104 74.5 175.5t184.5 71.5q122 0 192 -86t70 -239q0 -192 -73.5 -296t-201.5 -104q-138 0 -220 113l77 84q24 -38 62.5 -59t82.5 -21q67 0 107 53.5t41 149.5q-20 -36 -59.5 -57t-89.5 -21q-105 0 -176 68t-71 168zM299 603q-53 0 -92 -40t-39 -94t38.5 -92
t92.5 -38t92.5 38t38.5 91q0 55 -39 95t-92 40z" />
    <glyph glyph-name="one.lnum" horiz-adv-x="488" 
d="M340 121h127v-121h-403v121h139v462q-18 -26 -71 -56t-91 -30v124q32 0 72.5 24t64 45.5t25.5 26.5h137v-596z" />
    <glyph glyph-name="q.alt" horiz-adv-x="632" 
d="M258 -10q-99 0 -164 79t-65 194q0 114 70.5 192t174.5 78q118 0 181 -100v91h117v-737h-134v305q-59 -102 -180 -102zM308 104q79 0 130 86v124q-11 44 -50 74.5t-82 30.5q-60 0 -100 -47.5t-40 -112.5q0 -66 40 -110.5t102 -44.5z" />
    <glyph glyph-name="seven.lnum" horiz-adv-x="562" 
d="M63 0l293 588h-322v122h534l-353 -710h-152z" />
    <glyph glyph-name="six.lnum" horiz-adv-x="607" 
d="M567 237q0 -104 -74.5 -175.5t-184.5 -71.5q-121 0 -191.5 86.5t-70.5 239.5q0 192 73.5 295.5t201.5 103.5q139 0 220 -112l-77 -84q-24 38 -62.5 59t-82.5 21q-67 0 -107 -54t-41 -149q20 36 59.5 57t89.5 21q105 0 176 -68t71 -169zM308 103q53 0 92 39.5t39 94.5
q0 54 -38.5 92t-92.5 38t-92.5 -38t-38.5 -92t39 -94t92 -40z" />
    <glyph glyph-name="t.alt" horiz-adv-x="366" 
d="M232 0h-137v449h-79v120h79v163h137v-163h122v-120h-122v-449z" />
    <glyph glyph-name="three.lnum" horiz-adv-x="587" 
d="M274 -9q-87 0 -147.5 36t-84.5 103l71 88q7 -35 49 -69.5t110 -34.5q55 0 92.5 26t37.5 69q0 50 -53.5 75.5t-151.5 25.5h-33v112h33q85 0 135.5 23.5t50.5 71.5q0 41 -32 62.5t-72 21.5q-56 0 -95 -24t-58 -57l-86 97q34 47 100 74.5t138 27.5q107 0 177.5 -56
t70.5 -139q0 -59 -35.5 -98t-98.5 -53q67 -12 108 -63t41 -119q0 -95 -79 -147.5t-188 -52.5z" />
    <glyph glyph-name="two.lnum" horiz-adv-x="612" 
d="M560 0h-516q0 138 40 210.5t143 122.5q10 5 36.5 17.5t37.5 18t32 17.5t31 22t22 24.5t16.5 31t4.5 36.5q0 45 -27.5 71.5t-76.5 26.5q-94 0 -172 -85l-84 88q37 43 108 80.5t165 37.5q114 0 176.5 -59.5t62.5 -157.5q0 -44 -13 -78.5t-40.5 -60.5t-53.5 -43.5t-68 -38.5
q-80 -40 -115.5 -75.5t-35.5 -84.5h327v-121z" />
    <glyph glyph-name="u.alt" horiz-adv-x="605" 
d="M546 0h-129v90q-28 -49 -79 -74.5t-110 -25.5q-173 0 -173 206v328h134v-299q0 -121 91 -121q39 0 74.5 25t57.5 70v325h134v-524z" />
    <glyph glyph-name="w.alt" horiz-adv-x="867" 
d="M678 0h-145l-100 316l-100 -316h-145l-180 524h138l120 -364l104 364h126l104 -364l120 364h138z" />
    <glyph glyph-name="y.alt" horiz-adv-x="544" 
d="M412 524h126l-255 -737h-155l16 41q16 40 37 93t32 79l-208 524h139l142 -408z" />
    <glyph glyph-name="zero.lnum" horiz-adv-x="702" 
d="M351 -10q-73 1 -133.5 34.5t-97.5 86.5t-57.5 115t-20.5 124q0 88 36.5 169t109 136t163.5 55q59 0 110 -22.5t87 -59.5t61.5 -84.5t38 -97t12.5 -96.5q0 -139 -86.5 -249t-222.5 -111zM181 350q0 -93 45 -165.5t125 -72.5q56 0 96 39.5t57 92t17 106.5q0 58 -18.5 111
t-58.5 90t-93 37q-56 0 -96 -39.5t-57 -92t-17 -106.5z" />
    </font>
</defs>
</svg>
