<?xml version="1.0" standalone="no"?>
<!DOCTYPE svg PUBLIC "-//W3C//DTD SVG 1.1//EN" "http://www.w3.org/Graphics/SVG/1.1/DTD/svg11.dtd" >
<svg>
<metadata>
Created by FontForge 20110222 at Sun Oct 12 07:53:54 2014
 By deploy user
Copyright (c) 2010 - 2012, Matt McInerney (matt@pixelspread.com), Pablo Impallari(impallari@gmail.com), Rodrigo Fuenzalida (hello@rfuenzalida.com) with Reserved Font Name "Raleway"
</metadata>
<defs>
<font id="Raleway-ExtraBold" horiz-adv-x="268" >
  <font-face 
    font-family="Raleway"
    font-weight="800"
    font-stretch="normal"
    units-per-em="1000"
    panose-1="2 11 0 3 3 1 1 6 0 3"
    ascent="800"
    descent="-200"
    x-height="525"
    cap-height="710"
    bbox="-195 -231 1180 920"
    underline-thickness="50"
    underline-position="-50"
    unicode-range="U+000D-FB06"
  />
<missing-glyph horiz-adv-x="0" 
 />
    <glyph glyph-name="f_f" unicode="ff" horiz-adv-x="675" 
d="M590 605q-32 0 -48 -20.5t-16 -53.5v-67h127v-121h-127v-343h-160v343h-115v-343h-160v343h-67v121h67v28q0 95 50.5 154t136.5 59q61 0 135 -29q53 64 143 64q54 0 134 -31l-30 -120q-40 16 -70 16zM366 464v45q0 41 5 49q-29 12 -60 12q-30 0 -45 -20.5t-15 -51.5v-34
h115z" />
    <glyph glyph-name="f_i" unicode="fi" horiz-adv-x="595" 
d="M91 0v343h-67v121h67v61q0 94 62 154.5t164 60.5q100 0 210 -72l-62 -121q-66 58 -138 58q-36 0 -56 -20.5t-20 -53.5v-67h290v-464h-160v343h-130v-343h-160z" />
    <glyph glyph-name="f_l" unicode="fl" horiz-adv-x="691" 
d="M669 149l20 -129q-2 -2 -21.5 -8t-53.5 -13t-63 -7q-66 0 -106 34t-40 84v379q0 116 -78 116q-39 0 -57.5 -29.5t-18.5 -73.5v-38h79v-121h-79v-343h-160v343h-67v121h67v76q0 98 62.5 149t172.5 51q120 0 179.5 -56t59.5 -156v-336q0 -22 11.5 -40t34.5 -18q10 0 24 4
t24 8z" />
    <glyph glyph-name="f_f_i" unicode="ffi" horiz-adv-x="870" 
d="M91 0v343h-67v121h67v28q0 95 50.5 154t136.5 59q61 0 135 -29q64 64 176 64q97 0 213 -72l-62 -121q-29 26 -66 42t-68 16q-40 0 -60 -20.5t-20 -53.5v-67h290v-464h-161v343h-129v-343h-160v343h-115v-343h-160zM251 464h115v45q0 41 5 49q-29 12 -60 12
q-30 0 -45 -20.5t-15 -51.5v-34z" />
    <glyph glyph-name="f_f_l" unicode="ffl" horiz-adv-x="965" 
d="M826 -8q-67 0 -106.5 34t-39.5 84v379q0 116 -78 116q-39 0 -57.5 -29.5t-18.5 -73.5v-38h79v-121h-79v-343h-160v343h-115v-343h-160v343h-67v121h67v30q0 95 51 153t135 58q62 0 136 -29q61 64 187 64q120 0 180 -56.5t60 -155.5v-336q0 -22 11.5 -40t34.5 -18
q10 0 24 4t24 8l10 3l20 -129q-2 -2 -21.5 -8t-53.5 -13t-63 -7zM251 464h115v44q0 43 4 51q-26 11 -57 11q-62 0 -62 -71v-35z" />
    <glyph glyph-name=".notdef" horiz-adv-x="0" 
 />
    <glyph glyph-name=".null" horiz-adv-x="0" 
 />
    <glyph glyph-name="nonmarkingreturn" horiz-adv-x="333" 
 />
    <glyph glyph-name="NULL" horiz-adv-x="0" 
 />
    <glyph glyph-name="NULL" horiz-adv-x="0" 
 />
    <glyph glyph-name="CR" unicode="&#xd;" horiz-adv-x="0" 
 />
    <glyph glyph-name="space" unicode=" " horiz-adv-x="233" 
 />
    <glyph glyph-name="exclam" unicode="!" horiz-adv-x="307" 
d="M234 282h-160v435h160v-435zM234 0h-160v166h160v-166z" />
    <glyph glyph-name="quotedbl" unicode="&#x22;" horiz-adv-x="428" 
d="M191 519h-136v207h136v-207zM372 519h-135v207h135v-207z" />
    <glyph glyph-name="numbersign" unicode="#" horiz-adv-x="739" 
d="M702 522v-110h-151l-27 -114h129v-119h-158l-43 -179h-128l44 179h-92l-43 -179h-128l44 179h-112v119h141l27 114h-119v110h146l46 188h128l-47 -188h92l46 188h128l-47 -188h124zM305 298h92l26 114h-91z" />
    <glyph glyph-name="dollar" unicode="$" horiz-adv-x="641" 
d="M581 638l-71 -136q-10 12 -60.5 35.5t-100.5 30.5v-136l32 -8q114 -31 168 -77t54 -138q0 -106 -68.5 -158.5t-173.5 -57.5v-116h-70v117q-146 13 -258 86l72 143q13 -15 74 -44t124 -37v133l-48 14q-102 31 -147 74.5t-45 121.5q0 100 64 160t164 69v101h70v-101
q106 -10 220 -76zM426 193q0 24 -19 39t-58 28v-120q77 3 77 53zM233 511q0 -24 16.5 -38t53.5 -27v123q-70 -6 -70 -58z" />
    <glyph glyph-name="percent" unicode="%" horiz-adv-x="820" 
d="M207 411q-72 0 -121.5 45t-49.5 110q0 64 49.5 109t121.5 45t121.5 -45t49.5 -109q0 -65 -49.5 -110t-121.5 -45zM207 489q25 0 42.5 22.5t17.5 54.5q0 31 -18 53.5t-42 22.5q-25 0 -42.5 -22.5t-17.5 -53.5q0 -32 17.5 -54.5t42.5 -22.5zM613 -10q-72 0 -121.5 45
t-49.5 109q0 65 49.5 110t121.5 45t121.5 -45t49.5 -110q0 -64 -49.5 -109t-121.5 -45zM613 68q25 0 42.5 22.5t17.5 53.5t-18 54t-42 23q-25 0 -42.5 -22.5t-17.5 -54.5q0 -31 17.5 -53.5t42.5 -22.5zM176 -9l-71 65l282 324l256 339l72 -64l-273 -316z" />
    <glyph glyph-name="ampersand" unicode="&#x26;" horiz-adv-x="733" 
d="M732 0h-210l-47 49q-88 -59 -193 -59q-111 0 -177.5 65t-66.5 153q0 106 112 190q-37 44 -52 76t-15 69q0 80 56.5 128t144.5 48q82 0 140 -42t58 -121q0 -98 -108 -180l111 -118q28 66 28 143h130q-1 -140 -64 -241zM299 115q47 0 90 27l-141 150q-56 -42 -56 -85
q0 -35 29 -63.5t78 -28.5zM228 549q0 -15 9 -27.5t37 -41.5q33 21 47 37t14 37q0 22 -14 35t-37 13q-25 0 -40.5 -15t-15.5 -38z" />
    <glyph glyph-name="quotesingle" unicode="'" horiz-adv-x="242" 
d="M189 522h-135v204h135v-204z" />
    <glyph glyph-name="parenleft" unicode="(" horiz-adv-x="324" 
d="M30 347q0 94 39 193.5t113 223.5l122 -50q-41 -65 -83 -171t-42 -199q0 -130 121 -346l-117 -57q-153 231 -153 406z" />
    <glyph glyph-name="parenright" unicode=")" horiz-adv-x="324" 
d="M294 347q0 -176 -154 -406l-116 57q121 216 121 346q0 93 -42 199t-83 171l122 50q74 -124 113 -223.5t39 -193.5z" />
    <glyph glyph-name="asterisk" unicode="*" horiz-adv-x="354" 
d="M130 471l-59 39l47 75l-71 21l21 67l73 -34l-6 80h83l-6 -80l74 34l21 -67l-71 -21l47 -75l-59 -39l-47 79z" />
    <glyph glyph-name="plus" unicode="+" horiz-adv-x="426" 
d="M285 419h94v-128h-94v-104h-144v104h-95v128h95v104h144v-104z" />
    <glyph glyph-name="comma" unicode="," horiz-adv-x="249" 
d="M23 -132v113q7 0 14 2t15 10.5t9 22.5v147h130v-177q0 -33 -16 -57.5t-42 -37t-53.5 -18t-56.5 -5.5z" />
    <glyph glyph-name="hyphen" unicode="-" horiz-adv-x="415" 
d="M362 203h-308v144h308v-144z" />
    <glyph glyph-name="period" unicode="." horiz-adv-x="238" 
d="M184 0h-130v163h130v-163z" />
    <glyph glyph-name="slash" unicode="/" horiz-adv-x="734" 
d="M532 710h177l-505 -710h-176z" />
    <glyph glyph-name="zero" unicode="0" horiz-adv-x="614" 
d="M569 293q0 -132 -74.5 -217.5t-187.5 -85.5q-112 0 -186.5 86t-74.5 217q0 132 74.5 218t186.5 86q113 0 187.5 -86t74.5 -218zM407 293q0 69 -28 113t-72 44q-45 0 -73 -43.5t-28 -113.5t28 -113t73 -43q44 0 72 43.5t28 112.5z" />
    <glyph glyph-name="one" unicode="1" horiz-adv-x="518" 
d="M367 144h127v-144h-432v144h142v255q-18 -24 -71 -47.5t-91 -23.5v148q31 0 91 36.5t71 58.5h163v-427z" />
    <glyph glyph-name="two" unicode="2" horiz-adv-x="584" 
d="M540 0h-503q0 95 33.5 153t120.5 106q122 66 140 80q24 19 24 41q0 28 -21 45t-57 17q-69 0 -133 -74l-101 118q35 38 107 66.5t155 28.5q106 0 165 -47t59 -127q0 -60 -32.5 -98.5t-87.5 -71.5q-3 -2 -20.5 -12.5t-24 -14t-21.5 -14t-23 -17t-18.5 -16.5t-17.5 -19h256
v-144z" />
    <glyph glyph-name="three" unicode="3" horiz-adv-x="568" 
d="M394 237q62 -11 100.5 -61t38.5 -119q0 -94 -73 -149t-198 -55q-151 0 -237 89l86 114q54 -57 144 -57q112 0 112 83q0 91 -139 91h-29v115h33q54 0 86 23t32 61q0 32 -22.5 49.5t-61.5 17.5q-83 0 -131 -75l-101 116q33 43 102 69.5t148 26.5q107 0 172.5 -48.5
t65.5 -128.5q0 -60 -36 -106t-92 -56z" />
    <glyph glyph-name="four" unicode="4" horiz-adv-x="574" 
d="M456 -127h-160v137h-276v143l327 418h109v-417h88v-144h-88v-137zM314 331l-135 -177h135v177z" />
    <glyph glyph-name="five" unicode="5" horiz-adv-x="556" 
d="M292 322q102 0 168.5 -64t66.5 -165q0 -107 -75.5 -174.5t-192.5 -67.5q-77 0 -139.5 31.5t-95.5 86.5l90 99q29 -36 68 -56.5t78 -20.5q46 0 74.5 27t28.5 72q0 42 -26.5 68.5t-67.5 26.5q-60 0 -87 -46h-139l83 432h353v-146h-237l-21 -121q18 18 71 18z" />
    <glyph glyph-name="six" unicode="6" horiz-adv-x="607" 
d="M569 239q0 -105 -75.5 -177t-186.5 -72q-124 0 -194 89t-70 248q0 185 74.5 287t205.5 102q134 0 222 -105l-90 -102q-52 68 -134 68q-59 0 -94 -42.5t-36 -118.5q43 57 130 57q106 0 177 -67t71 -167zM307 125q44 0 77 34t33 80q0 45 -32.5 76.5t-77.5 31.5t-77.5 -31.5
t-32.5 -76.5q0 -46 33 -80t77 -34z" />
    <glyph glyph-name="seven" unicode="7" horiz-adv-x="584" 
d="M53 -126l279 564h-298v146h550l-350 -710h-181z" />
    <glyph glyph-name="eight" unicode="8" horiz-adv-x="608" 
d="M567 215q0 -99 -76.5 -161.5t-187.5 -62.5q-109 0 -185.5 64.5t-76.5 165.5q0 52 29.5 92.5t70.5 65.5q-34 18 -56.5 53.5t-22.5 73.5q0 63 38.5 111t92.5 70.5t111 22.5q91 0 166.5 -55t75.5 -147q0 -38 -22.5 -74.5t-56.5 -54.5q42 -25 71 -67t29 -97zM404 225
q0 40 -29 64t-71 24t-71 -24.5t-29 -64.5q0 -38 30 -63t70 -25q42 0 71 25.5t29 63.5zM225 503q0 -33 24 -51.5t55 -18.5t55.5 19t24.5 51q0 28 -23.5 47t-56.5 19q-34 0 -56.5 -19t-22.5 -47z" />
    <glyph glyph-name="nine" unicode="9" horiz-adv-x="590" 
d="M30 322q0 105 75.5 177t186.5 72q124 0 194 -89t70 -248q0 -185 -74.5 -287t-205.5 -102q-134 0 -222 105l90 102q52 -68 134 -68q59 0 94 42.5t36 118.5q-43 -57 -130 -57q-106 0 -177 67t-71 167zM292 436q-44 0 -77 -34t-33 -80q0 -45 32.5 -76.5t77.5 -31.5
t77.5 31.5t32.5 76.5q0 46 -33 80t-77 34z" />
    <glyph glyph-name="colon" unicode=":" horiz-adv-x="261" 
d="M196 356h-131v163h131v-163zM196 0h-131v163h131v-163z" />
    <glyph glyph-name="semicolon" unicode=";" horiz-adv-x="265" 
d="M198 356h-130v163h130v-163zM30 -132v113q6 0 13 2t15.5 10.5t9.5 22.5v147h130v-177q0 -33 -16 -57.5t-42 -37t-53.5 -18t-56.5 -5.5z" />
    <glyph glyph-name="less" unicode="&#x3c;" horiz-adv-x="511" 
d="M32 217v76l422 256v-170l-190 -120l190 -113v-179z" />
    <glyph glyph-name="equal" unicode="=" horiz-adv-x="435" 
d="M377 124h-318v102h318v-102zM377 326h-318v102h318v-102z" />
    <glyph glyph-name="greater" unicode="&#x3e;" horiz-adv-x="511" 
d="M479 293v-76l-423 -250v179l190 113l-190 120v170z" />
    <glyph glyph-name="question" unicode="?" horiz-adv-x="494" 
d="M243 245h-131q0 53 16 89.5t64 62.5q3 2 21.5 11.5t28 15t26.5 17.5t26.5 22.5t17 25.5t7.5 31q0 32 -23 51t-55 19q-25 0 -47 -14t-31.5 -25.5t-23.5 -32.5l-103 72q26 60 82.5 94.5t127.5 34.5q86 0 149.5 -50t63.5 -150q0 -103 -94 -163q-13 -9 -41 -24t-42 -24
t-26.5 -26t-12.5 -37zM246 0h-131v150h131v-150z" />
    <glyph glyph-name="at" unicode="@" horiz-adv-x="840" 
d="M425 603q75 0 142 -24t120 -70t84 -120.5t31 -167.5q0 -23 -2 -46.5t-11 -60t-24.5 -63.5t-47 -47t-73.5 -20q-88 0 -99 78q-73 -71 -174 -71q-77 0 -117.5 40.5t-40.5 105.5q0 54 30.5 90t72 49.5t90.5 13.5q55 0 110 -23q0 52 -24.5 80t-85.5 28q-81 0 -131 -43l-28 83
q74 50 174 50q52 0 89 -14t56 -33.5t29.5 -51.5t12.5 -55t2 -57v-82q0 -27 1.5 -44.5t6 -36.5t15 -28.5t27.5 -9.5q24 0 40.5 19t24 49t10.5 55t3 49q0 138 -88 227.5t-230 89.5t-228 -88t-86 -225q0 -134 82 -224t218 -90q67 0 157 38l18 -59q-83 -40 -177 -40
q-154 0 -258.5 105t-104.5 272q0 116 54 202t140 128t190 42zM466 98q49 24 49 69v28q-60 19 -106 19q-99 0 -99 -71q0 -26 16.5 -46t53.5 -20q42 0 86 21z" />
    <glyph glyph-name="A" unicode="A" horiz-adv-x="673" 
d="M172 0h-174l273 710h133l272 -710h-174l-55 159h-221zM419 272l-82 264l-85 -264h167z" />
    <glyph glyph-name="B" unicode="B" horiz-adv-x="684" 
d="M655 182q0 -88 -68 -135t-173 -47h-346v710h395q72 0 117 -55t45 -127q0 -52 -26.5 -97t-75.5 -67q62 -18 97 -65t35 -117zM488 215q0 33 -19 56t-48 23h-189v-155h182q32 0 53 21.5t21 54.5zM399 570h-167v-147h161q29 0 49 19t20 55q0 34 -18 53.5t-45 19.5z" />
    <glyph glyph-name="C" unicode="C" horiz-adv-x="663" 
d="M27 361q0 88 39.5 167.5t119.5 132.5t183 53q92 0 163 -42t106 -113l-126 -88q-20 52 -60.5 74.5t-86.5 22.5q-82 0 -126.5 -64t-44.5 -149q0 -88 48.5 -151.5t124.5 -63.5q45 0 86 24t59 74l135 -79q-30 -75 -112.5 -120t-171.5 -45q-95 0 -173.5 54t-120.5 137.5
t-42 175.5z" />
    <glyph glyph-name="D" unicode="D" horiz-adv-x="717" 
d="M333 0h-265v710h265q169 0 261.5 -100t92.5 -254q0 -161 -97 -258.5t-257 -97.5zM520 356q0 95 -50 152.5t-137 57.5h-101v-422h101q88 0 137.5 59t49.5 153z" />
    <glyph glyph-name="E" unicode="E" horiz-adv-x="601" 
d="M232 144h335v-144h-499v710h490v-144h-326v-138h280v-133h-280v-151z" />
    <glyph glyph-name="F" unicode="F" horiz-adv-x="565" 
d="M232 0h-164v710h482v-144h-318v-153h262v-133h-262v-280z" />
    <glyph glyph-name="G" unicode="G" horiz-adv-x="705" 
d="M528 0v69q-74 -74 -173 -74q-133 0 -230 109.5t-97 255.5q0 148 98.5 251.5t241.5 103.5q93 0 164 -41.5t107 -113.5l-123 -92q-22 47 -63.5 74t-89.5 27q-74 0 -121 -62t-47 -153q0 -93 49 -153t125 -60q90 0 159 87v24h-137v119h273v-371h-136z" />
    <glyph glyph-name="H" unicode="H" horiz-adv-x="747" 
d="M515 710h164v-710h-164v291h-283v-291h-164v710h164v-275h283v275z" />
    <glyph glyph-name="I" unicode="I" horiz-adv-x="300" 
d="M232 0h-164v710h164v-710z" />
    <glyph glyph-name="J" unicode="J" horiz-adv-x="498" 
d="M8 33l36 134q13 -10 46.5 -21t71.5 -11q70 0 91 46.5t21 167.5v361h164v-361q0 -72 -5 -121t-21.5 -98t-46 -77.5t-80.5 -46t-123 -17.5q-90 0 -154 44z" />
    <glyph glyph-name="K" unicode="K" horiz-adv-x="677" 
d="M232 0h-164v710h164v-320l274 320h170l-266 -317l284 -393h-173l-208 301l-81 -88v-213z" />
    <glyph glyph-name="L" unicode="L" horiz-adv-x="589" 
d="M576 0h-508v710h164v-566h344v-144z" />
    <glyph glyph-name="M" unicode="M" horiz-adv-x="860" 
d="M792 0h-164v425l-154 -309h-88l-154 309v-425h-164v710h178l184 -371l185 371h177v-710z" />
    <glyph glyph-name="N" unicode="N" horiz-adv-x="759" 
d="M559 0l-327 406v-406h-164v710h128l331 -417v417h164v-710h-132z" />
    <glyph glyph-name="O" unicode="O" horiz-adv-x="734" 
d="M366 -6q-146 0 -242 109.5t-96 252.5q0 144 98 251t243 107q146 0 241.5 -109.5t95.5 -251.5q0 -144 -98 -251.5t-242 -107.5zM195 354q0 -87 46.5 -150.5t126.5 -63.5q81 0 126 64.5t45 151.5t-46.5 149.5t-125.5 62.5q-81 0 -126.5 -63.5t-45.5 -150.5z" />
    <glyph glyph-name="P" unicode="P" horiz-adv-x="620" 
d="M232 0h-164v710h303q98 0 165 -74t67 -166q0 -97 -64 -169t-163 -72h-144v-229zM232 566v-194h134q30 0 50.5 26t20.5 72t-23 71t-54 25h-128z" />
    <glyph glyph-name="Q" unicode="Q" horiz-adv-x="736" 
d="M576 0l-39 43q-80 -48 -171 -48q-146 0 -242 109t-96 252q0 144 98 251.5t243 107.5q146 0 241.5 -110t95.5 -252q0 -130 -83 -234l108 -119h-155zM368 141q38 0 67 15l-112 124h154l37 -41q25 55 25 117q0 87 -46.5 150t-125.5 63q-81 0 -126.5 -64t-45.5 -151
t46.5 -150t126.5 -63z" />
    <glyph glyph-name="R" unicode="R" horiz-adv-x="680" 
d="M232 0h-164v710h320q97 0 164.5 -74t67.5 -166q0 -65 -31.5 -121t-84.5 -85l163 -264h-185l-143 229h-107v-229zM232 566v-194h150q30 0 50.5 28t20.5 70t-23.5 69t-52.5 27h-145z" />
    <glyph glyph-name="S" unicode="S" horiz-adv-x="616" 
d="M566 638l-71 -136q-13 15 -74 41.5t-116 26.5q-87 0 -87 -59q0 -32 30.5 -47.5t109.5 -37.5q5 -1 8 -2q114 -31 168 -77t54 -138q0 -112 -76 -164.5t-191 -52.5q-78 0 -159 23.5t-144 64.5l72 143q18 -19 91 -51t143 -32q87 0 87 53q0 11 -3.5 20t-13.5 17t-18.5 13.5
t-27.5 12t-30.5 10.5t-38 11.5t-39.5 11.5q-102 31 -147 74.5t-45 121.5q0 108 75 169.5t187 61.5q125 0 256 -78z" />
    <glyph glyph-name="T" unicode="T" horiz-adv-x="622" 
d="M609 710v-144h-216v-566h-164v566h-217v144h597z" />
    <glyph glyph-name="U" unicode="U" horiz-adv-x="745" 
d="M372 140q54 0 89 31t48.5 75.5t13.5 100.5v363h164v-363q0 -156 -79 -254.5t-236 -98.5q-82 0 -144.5 28.5t-98.5 78.5t-54 112t-18 134v363h164v-363q0 -90 36.5 -148.5t114.5 -58.5z" />
    <glyph glyph-name="V" unicode="V" horiz-adv-x="672" 
d="M-4 710h173l168 -504l165 504h173l-270 -710h-137z" />
    <glyph glyph-name="W" unicode="W" horiz-adv-x="1056" 
d="M422 379l-118 330h152l71 -227l73 227h151l-119 -330l72 -191l179 522h178l-283 -710h-138l-112 278l-113 -278h-137l-283 710h177l180 -522z" />
    <glyph glyph-name="X" unicode="X" horiz-adv-x="649" 
d="M-8 710h178l155 -245l155 245h177l-246 -360l238 -350h-177l-147 235l-147 -235h-178l238 350z" />
    <glyph glyph-name="Y" unicode="Y" horiz-adv-x="648" 
d="M-8 710h178l153 -326l156 326h178l-252 -468v-242h-164v244z" />
    <glyph glyph-name="Z" unicode="Z" horiz-adv-x="623" 
d="M27 0v123l369 443h-355v144h545v-123l-353 -443h357v-144h-563z" />
    <glyph glyph-name="bracketleft" unicode="[" horiz-adv-x="321" 
d="M281 -40h-214v780h214v-127h-67v-526h67v-127z" />
    <glyph glyph-name="backslash" unicode="\" horiz-adv-x="666" 
d="M26 710h177l435 -710h-176z" />
    <glyph glyph-name="bracketright" unicode="]" horiz-adv-x="321" 
d="M255 -40h-215v127h67v526h-67v127h215v-780z" />
    <glyph glyph-name="asciicircum" unicode="^" horiz-adv-x="604" 
d="M166 303h-128l198 407h133l197 -407h-130l-133 275z" />
    <glyph glyph-name="underscore" unicode="_" horiz-adv-x="370" 
d="M365 -144h-360v144h360v-144z" />
    <glyph glyph-name="grave" unicode="`" horiz-adv-x="269" 
d="M142 572l-96 158h145l52 -130z" />
    <glyph glyph-name="a" unicode="a" horiz-adv-x="590" 
d="M204 -10q-78 0 -130 48t-52 119q0 77 63 126t162 49q69 0 118 -22v24q0 91 -105 91q-77 0 -164 -58l-47 100q104 68 227 68q119 0 184 -56.5t65 -163.5v-135q0 -24 9 -34t32 -11v-135q-40 -8 -77 -8q-84 1 -96 67l-3 24q-73 -93 -186 -93zM251 105q56 0 91 33
q23 18 23 38v50q-48 17 -91 17q-44 0 -72.5 -20.5t-28.5 -51.5q0 -29 22 -47.5t56 -18.5z" />
    <glyph glyph-name="b" unicode="b" horiz-adv-x="639" 
d="M369 -10q-121 0 -175 97v-87h-140v730h160v-291q54 96 173 96q99 0 163 -79.5t64 -195.5q0 -115 -70 -192.5t-175 -77.5zM324 125q56 0 91 38.5t35 96.5q0 57 -33.5 98t-84.5 41q-37 0 -69 -25.5t-49 -65.5v-110q16 -33 46.5 -53t63.5 -20z" />
    <glyph glyph-name="c" unicode="c" horiz-adv-x="570" 
d="M24 263q0 114 76.5 193t205.5 79q87 0 150.5 -37.5t95.5 -101.5l-156 -47q-31 50 -91 50q-50 0 -83.5 -37.5t-33.5 -98.5t33.5 -99.5t83.5 -38.5q30 0 55 14.5t37 37.5l156 -48q-30 -63 -94.5 -101t-152.5 -38q-128 0 -205 79.5t-77 193.5z" />
    <glyph glyph-name="d" unicode="d" horiz-adv-x="660" 
d="M273 -10q-108 0 -178 77.5t-70 195.5q0 116 65.5 194t166.5 78q54 0 99 -26t69 -70v291h160v-550q0 -24 9 -34t32 -11v-135q-44 -8 -77 -8q-84 2 -96 67l-3 28q-28 -47 -75 -72t-102 -25zM316 125q33 0 63.5 20t46.5 53v110q-15 40 -48.5 65.5t-69.5 25.5
q-51 0 -84.5 -41t-33.5 -98q0 -59 35.5 -97t90.5 -38z" />
    <glyph glyph-name="e" unicode="e" horiz-adv-x="604" 
d="M306 -10q-128 0 -205 78t-77 189q0 118 76 198t206 80q129 0 204.5 -79t75.5 -192q0 -25 -4 -51h-388q4 -50 37.5 -79t79.5 -29q36 0 68 17.5t43 45.5l136 -38q-32 -64 -98 -102t-154 -38zM191 312h226q-4 49 -35.5 78.5t-77.5 29.5q-47 0 -78 -29.5t-35 -78.5z" />
    <glyph glyph-name="f" unicode="f" horiz-adv-x="395" 
d="M251 0h-160v343h-67v121h67v61q0 98 50.5 156.5t133.5 58.5q65 0 136 -31l-29 -120q-37 16 -72 16q-59 0 -59 -74v-67h122v-121h-122v-343z" />
    <glyph glyph-name="g" unicode="g" horiz-adv-x="639" 
d="M258 -2q-102 0 -167 76.5t-65 188.5q0 117 68.5 194.5t175.5 77.5q118 0 176 -96v86h139v-489q0 -119 -84 -189t-220 -70q-158 0 -250 105l85 87q64 -72 165 -72q63 0 103.5 34.5t40.5 104.5v51q-23 -42 -68.5 -65.5t-98.5 -23.5zM314 125q36 0 65 20t46 53v110
q-16 41 -49 66t-70 25q-50 0 -83.5 -42t-33.5 -98q0 -58 35.5 -96t89.5 -38z" />
    <glyph glyph-name="h" unicode="h" horiz-adv-x="611" 
d="M561 336v-336h-160v295q0 99 -76 99q-30 0 -63.5 -26.5t-47.5 -66.5v-301h-160v730h160v-293q28 46 76 72t106 26q165 0 165 -199z" />
    <glyph glyph-name="i" unicode="i" 
d="M214 0h-160v525h160v-525zM214 585h-160v145h160v-145z" />
    <glyph glyph-name="j" unicode="j" 
d="M21 -202q-82 0 -140 50l67 109q20 -21 53 -21q23 0 38 15t15 40v534h160v-522q0 -90 -54.5 -147.5t-138.5 -57.5zM214 585h-160v145h160v-145z" />
    <glyph glyph-name="k" unicode="k" horiz-adv-x="568" 
d="M577 0h-170l-137 211l-56 -58v-153h-160v730h160v-423l178 218h170l-189 -226z" />
    <glyph glyph-name="l" unicode="l" horiz-adv-x="339" 
d="M53 131v599h160v-534q0 -60 52 -60q24 0 52 14l21 -129q-67 -30 -141 -30q-69 0 -106.5 36.5t-37.5 103.5z" />
    <glyph glyph-name="m" unicode="m" horiz-adv-x="934" 
d="M884 336v-336h-160v295q0 99 -68 99q-32 0 -63 -26.5t-44 -66.5v-301h-160v295q0 99 -68 99q-32 0 -62.5 -26t-44.5 -67v-301h-160v525h144v-88q61 98 195 98q61 0 97.5 -28.5t47.5 -73.5q61 102 190 102q156 0 156 -199z" />
    <glyph glyph-name="n" unicode="n" horiz-adv-x="611" 
d="M561 336v-336h-160v295q0 99 -71 99q-34 0 -68 -26.5t-48 -66.5v-301h-160v525h144v-88q29 47 82.5 72.5t121.5 25.5q159 0 159 -199z" />
    <glyph glyph-name="o" unicode="o" horiz-adv-x="609" 
d="M305 -10q-129 0 -205 79.5t-76 192.5q0 114 76 193.5t205 79.5t205 -79.5t76 -193.5q0 -113 -76 -192.5t-205 -79.5zM188 262q0 -61 33 -99t84 -38q50 0 83 38.5t33 98.5q0 61 -33 99t-83 38t-83.5 -38.5t-33.5 -98.5z" />
    <glyph glyph-name="p" unicode="p" horiz-adv-x="638" 
d="M387 -10q-120 0 -173 95v-298h-160v738h140v-85q61 95 175 95q105 0 175 -78t70 -193q0 -117 -64.5 -195.5t-162.5 -78.5zM332 125q51 0 84.5 41.5t33.5 98.5q0 58 -35.5 96t-90.5 38q-33 0 -63.5 -19.5t-46.5 -52.5v-108q16 -40 49 -67t69 -27z" />
    <glyph glyph-name="q" unicode="q" horiz-adv-x="638" 
d="M252 -10q-98 0 -162.5 79t-64.5 195q0 115 69.5 193t174.5 78q113 0 176 -96v86h139v-550q0 -24 9 -33.5t32 -10.5v-136q-45 -8 -89 -8q-47 1 -79.5 29.5t-32.5 73.5v195q-54 -95 -172 -95zM313 125q66 0 111 71v111q-12 39 -46 65.5t-70 26.5q-51 0 -85.5 -41t-34.5 -98
q0 -59 35 -97t90 -38z" />
    <glyph glyph-name="r" unicode="r" horiz-adv-x="401" 
d="M387 532v-144q-130 -2 -173 -73v-315h-160v525h147v-106q28 52 70.5 82t90.5 32q20 0 25 -1z" />
    <glyph glyph-name="s" unicode="s" horiz-adv-x="517" 
d="M274 -10q-66 0 -140 18.5t-122 48.5l63 108q107 -62 195 -62q72 0 72 43q0 20 -23 31.5t-88 28.5q-109 28 -150.5 60t-41.5 91q0 79 61 128.5t156 49.5q109 0 225 -62l-63 -101q-94 52 -162 52q-69 0 -69 -44q0 -21 20 -32t79 -25q118 -30 164 -64.5t46 -98.5
q0 -78 -60 -124t-162 -46z" />
    <glyph glyph-name="t" unicode="t" horiz-adv-x="401" 
d="M364 155l30 -127q-88 -38 -161 -38q-65 0 -105.5 34t-40.5 106v274h-67v121h67v167h160v-167h107v-121h-107v-219q0 -49 47 -49q28 0 70 19z" />
    <glyph glyph-name="u" unicode="u" horiz-adv-x="633" 
d="M214 -10q-80 0 -122 51t-42 148v336h160v-301q0 -99 73 -99q72 0 115 76v324h160v-345q0 -24 9 -34t32 -11v-135q-44 -8 -76 -8q-84 1 -97 67l-3 32q-70 -101 -209 -101z" />
    <glyph glyph-name="v" unicode="v" horiz-adv-x="549" 
d="M361 0h-173l-186 525h164l115 -397l116 397h150z" />
    <glyph glyph-name="w" unicode="w" horiz-adv-x="856" 
d="M564 148l142 377h151l-217 -525h-131l-81 216l-80 -216h-131l-217 525h151l142 -377l49 143l-92 234h128l50 -158l51 158h128l-93 -234z" />
    <glyph glyph-name="x" unicode="x" horiz-adv-x="539" 
d="M2 525h163l95 -148l10 -19l9 19l95 148h164l-182 -263l185 -262h-163l-99 147l-9 19l-9 -19l-99 -147h-164l185 262z" />
    <glyph glyph-name="y" unicode="y" horiz-adv-x="545" 
d="M52 -216v137q42 -13 73 -13q26 0 42.5 21t27.5 71l-199 525h164l123 -388l105 388h149l-201 -610q-22 -66 -74.5 -105.5t-121.5 -40.5q-48 0 -88 15z" />
    <glyph glyph-name="z" unicode="z" horiz-adv-x="492" 
d="M23 0v96l268 318h-254v111h422v-96l-267 -318h273v-111h-442z" />
    <glyph glyph-name="braceleft" unicode="{" horiz-adv-x="328" 
d="M287 613h-55v-181q0 -38 -38 -72q38 -34 38 -72v-192h55v-127h-176q-8 0 -15.5 7t-7.5 23v235q0 27 -16.5 47t-38.5 25v110q21 0 38 22.5t17 47.5v224q0 16 7.5 23t15.5 7h176v-127z" />
    <glyph glyph-name="bar" unicode="|" horiz-adv-x="264" 
d="M200 -130h-135v905h135v-905z" />
    <glyph glyph-name="braceright" unicode="}" horiz-adv-x="328" 
d="M96 613h-55v127h176q8 0 15.5 -7t7.5 -23v-224q0 -25 17 -47.5t37 -22.5v-110q-22 -5 -38 -25t-16 -47v-235q0 -16 -7.5 -23t-15.5 -7h-176v127h55v192q0 39 38 72q-38 34 -38 72v181z" />
    <glyph glyph-name="asciitilde" unicode="~" horiz-adv-x="584" 
d="M50 222q0 13 8 35t24 47.5t48 44t72 18.5t96.5 -26.5t85.5 -26.5q25 0 42.5 12.5t22 23t4.5 15.5h85q0 -7 -4.5 -21.5t-16 -36t-28 -40t-44.5 -32t-62 -13.5q-39 0 -96.5 25.5t-85.5 25.5q-17 0 -29.5 -5t-18.5 -12t-10 -15t-5 -12.5t-1 -6.5h-87z" />
    <glyph glyph-name="uni00A0" unicode="&#xa0;" horiz-adv-x="233" 
 />
    <glyph glyph-name="exclamdown" unicode="&#xa1;" horiz-adv-x="307" 
d="M74 429h160v-435h-160v435zM74 711h160v-166h-160v166z" />
    <glyph glyph-name="cent" unicode="&#xa2;" horiz-adv-x="606" 
d="M347 -120h-69v111q-102 8 -170.5 88t-68.5 179q0 105 62.5 181t176.5 94v112h69v-112q71 -2 129 -37t92 -100l-155 -47q-24 40 -66 45v-265q52 14 67 48l156 -48q-29 -64 -97 -101.5t-126 -37.5v-110zM204 258q0 -40 20 -73t54 -48v250q-34 -10 -54 -46t-20 -83z" />
    <glyph glyph-name="sterling" unicode="&#xa3;" horiz-adv-x="564" 
d="M57 265v119h64q-3 6 -11 24t-11.5 25.5t-9.5 23.5t-8.5 26t-5 24t-2.5 27q0 76 63 128.5t153 52.5q63 0 120.5 -28t97.5 -77l-82 -98q-26 32 -64.5 53t-72.5 21q-32 0 -52.5 -19t-20.5 -50q0 -18 7 -38.5t21.5 -49.5t20.5 -45h187v-119h-167q-7 -70 -76 -142q42 14 77 14
q23 0 67 -8t66 -8q27 0 69 14l39 -118q-52 -32 -117 -32q-30 0 -94.5 15.5t-97.5 15.5q-58 0 -135 -25l-34 114q43 31 69 73.5t30 86.5h-90z" />
    <glyph glyph-name="yen" unicode="&#xa5;" horiz-adv-x="726" 
d="M696 710l-162 -294h69v-103h-122l-38 -71v-31h161v-103h-161v-108h-163v108h-160v103h160v33l-37 69h-122v103h70l-160 294h177l153 -326l156 326h179z" />
    <glyph glyph-name="brokenbar" unicode="&#xa6;" 
d="M67 260h135v-390h-135v390zM67 775h135v-390h-135v390z" />
    <glyph glyph-name="section" unicode="&#xa7;" horiz-adv-x="541" 
d="M471 223q30 -32 30 -101q0 -55 -22.5 -97.5t-58 -66t-73.5 -35t-76 -11.5q-73 0 -131.5 35t-91.5 74l102 98q52 -55 113 -55q30 0 51 14t21 38q0 23 -16.5 31t-44.5 10q-103 8 -157.5 57t-54.5 127q0 29 15 70q-36 41 -36 107q0 79 63 138t154 59q130 0 223 -134
l-122 -58q-29 50 -91 50q-30 0 -48 -14.5t-18 -37.5q0 -27 17 -36.5t48 -10.5q56 -2 103 -17t82.5 -55t35.5 -101q0 -47 -17 -78zM217 319q0 -26 17 -37t49.5 -14.5t39.5 -5.5q14 11 14 34q0 26 -19.5 38t-43.5 12q-32 0 -44 7q-13 -11 -13 -34z" />
    <glyph glyph-name="dieresis" unicode="&#xa8;" horiz-adv-x="508" 
d="M215 593h-132v129h132v-129zM425 593h-132v129h132v-129z" />
    <glyph glyph-name="copyright" unicode="&#xa9;" horiz-adv-x="845" 
d="M419 -7q-163 0 -270.5 103.5t-107.5 258.5t107.5 257.5t270.5 102.5q166 0 275.5 -102.5t109.5 -257.5t-109.5 -258.5t-275.5 -103.5zM419 49q138 0 231 86t93 219q0 129 -92.5 217t-231.5 88q-135 0 -226 -88t-91 -216q0 -129 90.5 -217.5t226.5 -88.5zM428 114
q-118 0 -189 69t-71 171q0 100 69 170.5t190 70.5q83 0 143.5 -36.5t89.5 -98.5l-155 -48q-25 48 -79 48q-42 0 -68 -30t-26 -76q0 -48 28.5 -76.5t66.5 -28.5q53 0 79 48l156 -47q-29 -60 -89.5 -98t-144.5 -38z" />
    <glyph glyph-name="ordfeminine" unicode="&#xaa;" horiz-adv-x="448" 
d="M158 336q-52 0 -86.5 33t-34.5 83q0 54 42 88t108 34q47 0 76 -15v15q0 62 -67 62q-51 0 -109 -40l-33 71q69 47 153 47q81 0 125 -39.5t44 -113.5v-89q0 -31 28 -32v-97q-30 -6 -53 -6q-59 1 -67 48l-3 16q-48 -65 -123 -65zM192 419q33 0 56 21q15 10 15 26v33
q-24 12 -56 12q-28 0 -46 -13.5t-18 -35.5q0 -18 14 -30.5t35 -12.5z" />
    <glyph glyph-name="guillemotleft" unicode="&#xab;" horiz-adv-x="677" 
d="M34 217v76l269 193v-129l-143 -98l143 -91v-129zM352 217v76l270 193v-129l-143 -98l143 -91v-129z" />
    <glyph glyph-name="logicalnot" unicode="&#xac;" horiz-adv-x="625" 
d="M56 415h507v-317h-135v173h-372v144z" />
    <glyph glyph-name="uni00AD" unicode="&#xad;" horiz-adv-x="615" 
d="M561 203h-507v144h507v-144z" />
    <glyph glyph-name="registered" unicode="&#xae;" horiz-adv-x="845" 
d="M420 -7q-164 0 -271.5 103t-107.5 259q0 155 107.5 257.5t271.5 102.5q165 0 274.5 -102.5t109.5 -257.5t-109.5 -258.5t-274.5 -103.5zM421 48q136 0 227.5 86.5t91.5 218.5q0 129 -91 217.5t-228 88.5t-226 -88t-89 -217t89.5 -217.5t225.5 -88.5zM255 140v434h197
q59 0 100.5 -46t41.5 -102q0 -39 -20 -73.5t-52 -51.5l100 -161h-125l-87 140h-43v-140h-112zM367 376h74q43 0 43 50q0 26 -13 38t-32 12h-72v-100z" />
    <glyph glyph-name="macron" unicode="&#xaf;" horiz-adv-x="428" 
d="M366 621h-304v97h304v-97z" />
    <glyph glyph-name="degree" unicode="&#xb0;" horiz-adv-x="295" 
d="M37 618q0 45 31 75.5t79 30.5t79 -30.5t31 -75.5q0 -51 -30.5 -82.5t-79.5 -31.5q-48 0 -79 32t-31 82zM122 638q-10 -12 -10 -24q0 -14 10 -24q11 -11 25 -11q16 0 25 11q10 8 10 24q0 14 -10 24q-9 10 -25 10q-15 0 -25 -10z" />
    <glyph glyph-name="plusminus" unicode="&#xb1;" horiz-adv-x="476" 
d="M421 16h-366v127h366v-127zM310 445h111v-127h-111v-121h-143v121h-112v127h112v121h143v-121z" />
    <glyph glyph-name="twosuperior" unicode="&#xb2;" horiz-adv-x="428" 
d="M382 296h-353q0 84 28 128t104 76q8 3 26.5 10.5t27.5 11t23.5 10.5t22 12.5t15.5 13.5t11.5 16.5t3.5 18.5q0 47 -79 47q-72 0 -122 -46l-59 68q21 27 73 48t121 21q83 0 127.5 -36t44.5 -103q0 -100 -129 -137q-86 -25 -86 -68h200v-91z" />
    <glyph glyph-name="threesuperior" unicode="&#xb3;" horiz-adv-x="415" 
d="M193 289q-134 0 -167 76l50 70q3 -8 15 -18.5t40 -22t61 -11.5q42 0 69 11.5t27 32.5q0 49 -148 49h-25v85h24q134 0 134 47q0 18 -23.5 27.5t-52.5 9.5q-68 0 -112 -47l-59 75q23 27 70 42.5t100 15.5q76 0 126.5 -34t50.5 -84q0 -35 -26 -58t-71 -31q49 -7 78 -38
t29 -73q0 -61 -55.5 -92.5t-134.5 -31.5z" />
    <glyph glyph-name="acute" unicode="&#xb4;" horiz-adv-x="269" 
d="M243 730l-95 -158l-102 28l52 130h145z" />
    <glyph glyph-name="mu" unicode="&#xb5;" horiz-adv-x="652" 
d="M66 -213v738h160v-301q0 -99 77 -99q68 0 111 76v324h160v-345q0 -24 9 -33.5t32 -11.5v-135q-44 -8 -77 -8q-84 2 -96 67l-3 32q-15 -34 -58.5 -67.5t-87.5 -33.5q-32 0 -52.5 16.5t-24.5 31.5l10 -251h-160z" />
    <glyph glyph-name="paragraph" unicode="&#xb6;" horiz-adv-x="674" 
d="M35 451q0 123 74 191t208 68h316v-119h-70v-671h-135v279h-42v-279h-135v279q-97 0 -156.5 69.5t-59.5 182.5zM167 455q0 -58 24 -95.5t60 -42.5v274q-39 -3 -61.5 -40.5t-22.5 -95.5zM428 317v274h-42v-274h42z" />
    <glyph glyph-name="periodcentered" unicode="&#xb7;" horiz-adv-x="238" 
d="M184 240h-130v166h130v-166z" />
    <glyph glyph-name="cedilla" unicode="&#xb8;" horiz-adv-x="343" 
d="M21 -183l30 56q33 -20 90 -20q56 0 56 32t-54 32q-38 0 -79 -11l62 126l60 -18l-36 -52q14 3 30 3q39 0 64.5 -18.5t25.5 -55.5q0 -42 -36 -68.5t-104 -26.5q-59 0 -109 21z" />
    <glyph glyph-name="onesuperior" unicode="&#xb9;" horiz-adv-x="309" 
d="M219 389h69v-92h-241v92h77v243q-12 -16 -41.5 -34t-51.5 -18v93q18 0 41.5 14.5t37 27.5t14.5 16h95v-342z" />
    <glyph glyph-name="ordmasculine" unicode="&#xba;" horiz-adv-x="441" 
d="M220 336q-87 0 -137.5 55t-50.5 134t50.5 134t137.5 55t138 -55t51 -134t-51 -134t-138 -55zM147 525q0 -41 20.5 -66.5t52.5 -25.5t52.5 25.5t20.5 66.5t-20.5 66.5t-52.5 25.5t-52.5 -25.5t-20.5 -66.5z" />
    <glyph glyph-name="guillemotright" unicode="&#xbb;" horiz-adv-x="677" 
d="M643 293v-76l-270 -178v129l144 91l-144 98v129zM324 293v-76l-270 -178v129l144 91l-144 98v129z" />
    <glyph glyph-name="onequarter" unicode="&#xbc;" horiz-adv-x="971" 
d="M873 1h-93v88h-218v91l247 251h64v-251h62v-91h-62v-88zM784 318l-134 -138h134v138zM229 389h69v-92h-241v92h77v243q-12 -16 -41.5 -34t-51.5 -18v93q18 0 41.5 14.5t37 27.5t14.5 16h95v-342zM262 -9l-71 65l282 324l256 339l72 -64l-273 -316z" />
    <glyph glyph-name="onehalf" unicode="&#xbd;" horiz-adv-x="993" 
d="M954 0h-341q0 84 26.5 128t96.5 76q8 4 24.5 11t25 10.5t21.5 10.5t20 12.5t15 13.5t11 16.5t3 18.5q0 47 -74 47q-65 0 -112 -47l-54 69q20 27 68 48t112 21q76 0 117 -36t41 -103q0 -100 -119 -137q-80 -25 -80 -68h199v-91zM228 389h69v-92h-241v92h77v243
q-12 -16 -41.5 -34t-51.5 -18v93q18 0 41.5 14.5t37 27.5t14.5 16h95v-342zM224 -9l-71 65l282 324l256 339l72 -64l-273 -316z" />
    <glyph glyph-name="threequarters" unicode="&#xbe;" horiz-adv-x="983" 
d="M205 289q-134 0 -167 76l50 70q3 -8 15 -18.5t40 -22t61 -11.5q42 0 69 11.5t27 32.5q0 49 -148 49h-25v85h24q134 0 134 47q0 18 -23.5 27.5t-52.5 9.5q-68 0 -112 -47l-59 75q23 27 70 42.5t100 15.5q76 0 126.5 -34t50.5 -84q0 -35 -26 -58t-71 -31q49 -7 78 -38
t29 -73q0 -61 -55.5 -92.5t-134.5 -31.5zM882 1h-93v88h-218v91l247 251h64v-251h62v-91h-62v-88zM793 318l-134 -138h134v138zM294 -9l-71 65l282 324l256 339l72 -64l-273 -316z" />
    <glyph glyph-name="questiondown" unicode="&#xbf;" horiz-adv-x="487" 
d="M248 261h131q0 -53 -16 -89.5t-64 -62.5q-3 -2 -21.5 -11.5t-28 -15t-26.5 -17.5t-26.5 -22.5t-17 -25.5t-7.5 -31q0 -32 23 -51t55 -19q25 0 47 14t31.5 25.5t23.5 32.5l103 -72q-26 -60 -82.5 -94.5t-127.5 -34.5q-86 0 -149.5 50t-63.5 150q0 103 94 163q13 9 41 24
t42 24t26.5 26t12.5 37zM245 506h131v-150h-131v150z" />
    <glyph glyph-name="Agrave" unicode="&#xc0;" horiz-adv-x="673" 
d="M172 0h-174l273 710h133l272 -710h-174l-55 159h-221zM419 272l-82 264l-85 -264h167zM292 758l-96 158h145l52 -130z" />
    <glyph glyph-name="Aacute" unicode="&#xc1;" horiz-adv-x="673" 
d="M172 0h-174l273 710h133l272 -710h-174l-55 159h-221zM419 272l-82 264l-85 -264h167zM478 915l-95 -158l-102 28l52 130h145z" />
    <glyph glyph-name="Acircumflex" unicode="&#xc2;" horiz-adv-x="673" 
d="M172 0h-174l273 710h133l272 -710h-174l-55 159h-221zM419 272l-82 264l-85 -264h167zM252 771l-82 36l110 108h115l109 -108l-82 -36l-85 63z" />
    <glyph glyph-name="Atilde" unicode="&#xc3;" horiz-adv-x="673" 
d="M172 0h-174l273 710h133l272 -710h-174l-55 159h-221zM419 272l-82 264l-85 -264h167zM401 773q-33 0 -73 23t-60 23t-31.5 -12.5t-13.5 -21t-2 -14.5h-86q0 20 11 50.5t42 61t74 30.5q34 0 73 -24t60 -24t33.5 12.5t15.5 22.5t3 15h86q0 -10 -7.5 -31.5t-21.5 -47
t-41.5 -44.5t-61.5 -19z" />
    <glyph glyph-name="Adieresis" unicode="&#xc4;" horiz-adv-x="673" 
d="M172 0h-174l273 710h133l272 -710h-174l-55 159h-221zM419 272l-82 264l-85 -264h167zM298 779h-132v129h132v-129zM508 779h-132v129h132v-129z" />
    <glyph glyph-name="Aring" unicode="&#xc5;" horiz-adv-x="673" 
d="M172 0h-174l273 710h133l272 -710h-174l-55 159h-221zM419 272l-82 264l-85 -264h167zM230 833q0 40 29 61t78 21t77.5 -21t28.5 -61q0 -39 -28.5 -60t-77.5 -21t-78 21t-29 60zM337 868q-17 0 -28.5 -9.5t-11.5 -24.5t11.5 -25t28.5 -10q16 0 28 10t12 25t-11.5 24.5
t-28.5 9.5z" />
    <glyph glyph-name="AE" unicode="&#xc6;" horiz-adv-x="977" 
d="M-18 0l437 710h516v-144h-310v-133h256v-143h-256v-146h319v-144h-482v159h-215l-91 -159h-174zM317 303h133v224z" />
    <glyph glyph-name="Ccedilla" unicode="&#xc7;" horiz-adv-x="664" 
d="M253 -183l30 56q33 -20 90 -20q56 0 56 32t-54 32q-38 0 -79 -11l44 89q-89 7 -161.5 61.5t-111.5 135.5t-39 169t39.5 167.5t119.5 132.5t183 53q92 0 163 -42t106 -113l-126 -88q-20 52 -60.5 74.5t-86.5 22.5q-82 0 -126.5 -64t-44.5 -149q0 -88 48.5 -151.5
t124.5 -63.5q45 0 86 24t59 74l135 -79q-27 -66 -95 -109t-147 -53l-24 -35q14 3 30 3q39 0 64.5 -18.5t25.5 -55.5q0 -42 -36 -68.5t-104 -26.5q-59 0 -109 21z" />
    <glyph glyph-name="Egrave" unicode="&#xc8;" horiz-adv-x="601" 
d="M232 144h335v-144h-499v710h490v-144h-326v-138h280v-133h-280v-151zM276 758l-96 158h145l52 -130z" />
    <glyph glyph-name="Eacute" unicode="&#xc9;" horiz-adv-x="601" 
d="M462 915l-95 -158l-102 28l52 130h145zM232 144h335v-144h-499v710h490v-144h-326v-138h280v-133h-280v-151z" />
    <glyph glyph-name="Ecircumflex" unicode="&#xca;" horiz-adv-x="601" 
d="M236 771l-82 36l110 108h115l109 -108l-82 -36l-85 63zM232 144h335v-144h-499v710h490v-144h-326v-138h280v-133h-280v-151z" />
    <glyph glyph-name="Edieresis" unicode="&#xcb;" horiz-adv-x="601" 
d="M282 779h-132v129h132v-129zM492 779h-132v129h132v-129zM232 144h335v-144h-499v710h490v-144h-326v-138h280v-133h-280v-151z" />
    <glyph glyph-name="Igrave" unicode="&#xcc;" horiz-adv-x="300" 
d="M232 0h-164v710h164v-710zM104 758l-96 158h145l52 -130z" />
    <glyph glyph-name="Iacute" unicode="&#xcd;" horiz-adv-x="300" 
d="M232 0h-164v710h164v-710zM290 915l-95 -158l-102 28l52 130h145z" />
    <glyph glyph-name="Icircumflex" unicode="&#xce;" horiz-adv-x="300" 
d="M232 0h-164v710h164v-710zM65 771l-82 36l110 108h115l109 -108l-82 -36l-85 63z" />
    <glyph glyph-name="Idieresis" unicode="&#xcf;" horiz-adv-x="300" 
d="M232 0h-164v710h164v-710zM111 779h-132v129h132v-129zM321 779h-132v129h132v-129z" />
    <glyph glyph-name="Eth" unicode="&#xd0;" horiz-adv-x="722" 
d="M337 0h-265v298h-43v118h43v294h265q169 0 261.5 -100t92.5 -254q0 -161 -97 -258.5t-257 -97.5zM524 356q0 95 -50 152.5t-137 57.5h-101v-150h128v-118h-128v-154h101q88 0 137.5 59t49.5 153z" />
    <glyph glyph-name="Ntilde" unicode="&#xd1;" horiz-adv-x="759" 
d="M559 0l-327 406v-406h-164v710h128l331 -417v417h164v-710h-132zM441 772q-33 0 -73 23t-60 23t-31.5 -12.5t-13.5 -21t-2 -14.5h-86q0 20 11 50.5t42 61t74 30.5q34 0 73 -24t60 -24t33.5 12.5t15.5 22.5t3 15h86q0 -10 -7.5 -31.5t-21.5 -47t-41.5 -44.5t-61.5 -19z
" />
    <glyph glyph-name="Ograve" unicode="&#xd2;" horiz-adv-x="734" 
d="M366 -6q-146 0 -242 109.5t-96 252.5q0 144 98 251t243 107q146 0 241.5 -109.5t95.5 -251.5q0 -144 -98 -251.5t-242 -107.5zM195 354q0 -87 46.5 -150.5t126.5 -63.5q81 0 126 64.5t45 151.5t-46.5 149.5t-125.5 62.5q-81 0 -126.5 -63.5t-45.5 -150.5zM324 758
l-96 158h145l52 -130z" />
    <glyph glyph-name="Oacute" unicode="&#xd3;" horiz-adv-x="734" 
d="M510 915l-95 -158l-102 28l52 130h145zM366 -6q-146 0 -242 109.5t-96 252.5q0 144 98 251t243 107q146 0 241.5 -109.5t95.5 -251.5q0 -144 -98 -251.5t-242 -107.5zM195 354q0 -87 46.5 -150.5t126.5 -63.5q81 0 126 64.5t45 151.5t-46.5 149.5t-125.5 62.5
q-81 0 -126.5 -63.5t-45.5 -150.5z" />
    <glyph glyph-name="Ocircumflex" unicode="&#xd4;" horiz-adv-x="734" 
d="M284 771l-82 36l110 108h115l109 -108l-82 -36l-85 63zM366 -6q-146 0 -242 109.5t-96 252.5q0 144 98 251t243 107q146 0 241.5 -109.5t95.5 -251.5q0 -144 -98 -251.5t-242 -107.5zM195 354q0 -87 46.5 -150.5t126.5 -63.5q81 0 126 64.5t45 151.5t-46.5 149.5
t-125.5 62.5q-81 0 -126.5 -63.5t-45.5 -150.5z" />
    <glyph glyph-name="Otilde" unicode="&#xd5;" horiz-adv-x="734" 
d="M366 -6q-146 0 -242 109.5t-96 252.5q0 144 98 251t243 107q146 0 241.5 -109.5t95.5 -251.5q0 -144 -98 -251.5t-242 -107.5zM195 354q0 -87 46.5 -150.5t126.5 -63.5q81 0 126 64.5t45 151.5t-46.5 149.5t-125.5 62.5q-81 0 -126.5 -63.5t-45.5 -150.5zM433 773
q-33 0 -73 23t-60 23t-31.5 -12.5t-13.5 -21t-2 -14.5h-86q0 20 11 50.5t42 61t74 30.5q34 0 73 -24t60 -24t33.5 12.5t15.5 22.5t3 15h86q0 -10 -7.5 -31.5t-21.5 -47t-41.5 -44.5t-61.5 -19z" />
    <glyph glyph-name="Odieresis" unicode="&#xd6;" horiz-adv-x="734" 
d="M330 779h-132v129h132v-129zM540 779h-132v129h132v-129zM366 -6q-146 0 -242 109.5t-96 252.5q0 144 98 251t243 107q146 0 241.5 -109.5t95.5 -251.5q0 -144 -98 -251.5t-242 -107.5zM195 354q0 -87 46.5 -150.5t126.5 -63.5q81 0 126 64.5t45 151.5t-46.5 149.5
t-125.5 62.5q-81 0 -126.5 -63.5t-45.5 -150.5z" />
    <glyph glyph-name="multiply" unicode="&#xd7;" horiz-adv-x="484" 
d="M341 277l96 -96l-100 -99l-96 95l-95 -95l-99 99l95 95l-90 91l100 99l90 -90l90 90l99 -99z" />
    <glyph glyph-name="Oslash" unicode="&#xd8;" horiz-adv-x="736" 
d="M531 710h177l-85 -119q84 -104 84 -238q0 -144 -98 -251.5t-242 -107.5q-79 0 -144 34l-20 -28h-176l84 119q-82 104 -82 237q0 144 98 251t243 107q75 0 141 -33zM540 356q0 49 -17 94l-213 -299q28 -11 59 -11q81 0 126 64.5t45 151.5zM196 354q0 -52 16 -94l211 298
q-28 10 -55 10q-81 0 -126.5 -63.5t-45.5 -150.5z" />
    <glyph glyph-name="Ugrave" unicode="&#xd9;" horiz-adv-x="745" 
d="M372 140q54 0 89 31t48.5 75.5t13.5 100.5v363h164v-363q0 -156 -79 -254.5t-236 -98.5q-82 0 -144.5 28.5t-98.5 78.5t-54 112t-18 134v363h164v-363q0 -90 36.5 -148.5t114.5 -58.5zM327 758l-96 158h145l52 -130z" />
    <glyph glyph-name="Uacute" unicode="&#xda;" horiz-adv-x="745" 
d="M513 915l-95 -158l-102 28l52 130h145zM372 140q54 0 89 31t48.5 75.5t13.5 100.5v363h164v-363q0 -156 -79 -254.5t-236 -98.5q-82 0 -144.5 28.5t-98.5 78.5t-54 112t-18 134v363h164v-363q0 -90 36.5 -148.5t114.5 -58.5z" />
    <glyph glyph-name="Ucircumflex" unicode="&#xdb;" horiz-adv-x="745" 
d="M287 771l-82 36l110 108h115l109 -108l-82 -36l-85 63zM372 140q54 0 89 31t48.5 75.5t13.5 100.5v363h164v-363q0 -156 -79 -254.5t-236 -98.5q-82 0 -144.5 28.5t-98.5 78.5t-54 112t-18 134v363h164v-363q0 -90 36.5 -148.5t114.5 -58.5z" />
    <glyph glyph-name="Udieresis" unicode="&#xdc;" horiz-adv-x="745" 
d="M333 779h-132v129h132v-129zM543 779h-132v129h132v-129zM372 140q54 0 89 31t48.5 75.5t13.5 100.5v363h164v-363q0 -156 -79 -254.5t-236 -98.5q-82 0 -144.5 28.5t-98.5 78.5t-54 112t-18 134v363h164v-363q0 -90 36.5 -148.5t114.5 -58.5z" />
    <glyph glyph-name="Yacute" unicode="&#xdd;" horiz-adv-x="648" 
d="M-8 710h178l153 -326l156 326h178l-252 -468v-242h-164v244zM464 915l-95 -158l-102 28l52 130h145z" />
    <glyph glyph-name="Thorn" unicode="&#xde;" horiz-adv-x="605" 
d="M355 586q98 0 165 -73.5t67 -165.5q0 -97 -64 -169t-162 -72h-129v-106h-164v710h164v-124h123zM352 250q30 0 50.5 27.5t20.5 69.5t-23 69t-53 27h-115v-193h120z" />
    <glyph glyph-name="germandbls" unicode="&#xdf;" horiz-adv-x="560" 
d="M250 -6v147q52 0 85 23t33 67q0 41 -29 64.5t-64 23.5h-22v143h20q28 0 43.5 16t15.5 42q0 33 -20.5 46t-41.5 13q-35 0 -49.5 -25.5t-14.5 -56.5v-497h-152v525q0 81 66 135t164 54q88 0 144 -45t56 -121q0 -49 -23 -90t-56 -55q61 -21 96 -71t35 -120q0 -59 -24 -102.5
t-66 -67.5t-91 -36t-105 -12z" />
    <glyph glyph-name="agrave" unicode="&#xe0;" horiz-adv-x="590" 
d="M204 -10q-78 0 -130 48t-52 119q0 77 63 126t162 49q69 0 118 -22v24q0 91 -105 91q-77 0 -164 -58l-47 100q104 68 227 68q119 0 184 -56.5t65 -163.5v-135q0 -24 9 -34t32 -11v-135q-40 -8 -77 -8q-84 1 -96 67l-3 24q-73 -93 -186 -93zM251 105q56 0 91 33
q23 18 23 38v50q-48 17 -91 17q-44 0 -72.5 -20.5t-28.5 -51.5q0 -29 22 -47.5t56 -18.5zM231 573l-96 158h145l52 -130z" />
    <glyph glyph-name="aacute" unicode="&#xe1;" horiz-adv-x="590" 
d="M204 -10q-78 0 -130 48t-52 119q0 77 63 126t162 49q69 0 118 -22v24q0 91 -105 91q-77 0 -164 -58l-47 100q104 68 227 68q119 0 184 -56.5t65 -163.5v-135q0 -24 9 -34t32 -11v-135q-40 -8 -77 -8q-84 1 -96 67l-3 24q-73 -93 -186 -93zM251 105q56 0 91 33
q23 18 23 38v50q-48 17 -91 17q-44 0 -72.5 -20.5t-28.5 -51.5q0 -29 22 -47.5t56 -18.5zM417 730l-95 -158l-102 28l52 130h145z" />
    <glyph glyph-name="acircumflex" unicode="&#xe2;" horiz-adv-x="590" 
d="M204 -10q-78 0 -130 48t-52 119q0 77 63 126t162 49q69 0 118 -22v24q0 91 -105 91q-77 0 -164 -58l-47 100q104 68 227 68q119 0 184 -56.5t65 -163.5v-135q0 -24 9 -34t32 -11v-135q-40 -8 -77 -8q-84 1 -96 67l-3 24q-73 -93 -186 -93zM251 105q56 0 91 33
q23 18 23 38v50q-48 17 -91 17q-44 0 -72.5 -20.5t-28.5 -51.5q0 -29 22 -47.5t56 -18.5zM191 586l-82 36l110 108h115l109 -108l-82 -36l-85 63z" />
    <glyph glyph-name="atilde" unicode="&#xe3;" horiz-adv-x="590" 
d="M204 -10q-78 0 -130 48t-52 119q0 77 63 126t162 49q69 0 118 -22v24q0 91 -105 91q-77 0 -164 -58l-47 100q104 68 227 68q119 0 184 -56.5t65 -163.5v-135q0 -24 9 -34t32 -11v-135q-40 -8 -77 -8q-84 1 -96 67l-3 24q-73 -93 -186 -93zM251 105q56 0 91 33
q23 18 23 38v50q-48 17 -91 17q-44 0 -72.5 -20.5t-28.5 -51.5q0 -29 22 -47.5t56 -18.5zM339 588q-33 0 -73 23t-60 23t-31.5 -12.5t-13.5 -21t-2 -14.5h-86q0 20 11 50.5t42 61t74 30.5q34 0 73 -24t60 -24t33.5 12.5t15.5 22.5t3 15h86q0 -10 -7.5 -31.5t-21.5 -47
t-41.5 -44.5t-61.5 -19z" />
    <glyph glyph-name="adieresis" unicode="&#xe4;" horiz-adv-x="590" 
d="M204 -10q-78 0 -130 48t-52 119q0 77 63 126t162 49q69 0 118 -22v24q0 91 -105 91q-77 0 -164 -58l-47 100q104 68 227 68q119 0 184 -56.5t65 -163.5v-135q0 -24 9 -34t32 -11v-135q-40 -8 -77 -8q-84 1 -96 67l-3 24q-73 -93 -186 -93zM251 105q56 0 91 33
q23 18 23 38v50q-48 17 -91 17q-44 0 -72.5 -20.5t-28.5 -51.5q0 -29 22 -47.5t56 -18.5zM237 594h-132v129h132v-129zM447 594h-132v129h132v-129z" />
    <glyph glyph-name="aring" unicode="&#xe5;" horiz-adv-x="590" 
d="M204 -10q-78 0 -130 48t-52 119q0 77 63 126t162 49q69 0 118 -22v24q0 91 -105 91q-77 0 -164 -58l-47 100q104 68 227 68q119 0 184 -56.5t65 -163.5v-135q0 -24 9 -34t32 -11v-135q-40 -8 -77 -8q-84 1 -96 67l-3 24q-73 -93 -186 -93zM251 105q56 0 91 33
q23 18 23 38v50q-48 17 -91 17q-44 0 -72.5 -20.5t-28.5 -51.5q0 -29 22 -47.5t56 -18.5zM169 648q0 40 29 61t78 21t77.5 -21t28.5 -61q0 -39 -28.5 -60t-77.5 -21t-78 21t-29 60zM276 683q-17 0 -28.5 -9.5t-11.5 -24.5t11.5 -25t28.5 -10q16 0 28 10t12 25t-11.5 24.5
t-28.5 9.5z" />
    <glyph glyph-name="ae" unicode="&#xe6;" horiz-adv-x="940" 
d="M204 -10q-77 0 -129 48t-52 119q0 77 63 126t161 49q63 0 113 -20q0 1 1.5 14t2.5 16q-5 83 -104 83q-78 0 -163 -58l-48 100q106 68 227 68q120 0 184 -64q74 64 181 64q129 0 205 -79t76 -194q0 -23 -4 -49h-391q4 -50 38.5 -79t81.5 -29q37 0 68.5 17.5t42.5 45.5
l136 -38q-32 -64 -98 -102t-154 -38q-149 0 -229 105q-34 -52 -92.5 -78.5t-116.5 -26.5zM251 105q56 0 91 33q23 18 24 37q-2 3 -3 14t-2 24t-1 15q-43 15 -85 15q-44 0 -72.5 -20t-28.5 -52q0 -28 22 -47t55 -19zM524 310h229q-5 50 -36.5 80t-78.5 30t-78 -30t-36 -80z
" />
    <glyph glyph-name="ccedilla" unicode="&#xe7;" horiz-adv-x="572" 
d="M196 -183l30 56q33 -20 90 -20q56 0 56 32t-54 32q-38 0 -79 -11l42 85q-117 9 -186.5 87t-69.5 185q0 114 76.5 193t205.5 79q87 0 150.5 -37.5t95.5 -101.5l-156 -47q-31 50 -91 50q-50 0 -83.5 -37.5t-33.5 -98.5t33.5 -99.5t83.5 -38.5q30 0 55 14.5t37 37.5l156 -48
q-27 -56 -81 -92.5t-128 -44.5l-20 -30q13 3 30 3q39 0 64.5 -18.5t25.5 -55.5q0 -42 -36 -68.5t-104 -26.5q-59 0 -109 21z" />
    <glyph glyph-name="egrave" unicode="&#xe8;" horiz-adv-x="604" 
d="M306 -10q-128 0 -205 78t-77 189q0 118 76 198t206 80q129 0 204.5 -79t75.5 -192q0 -25 -4 -51h-388q4 -50 37.5 -79t79.5 -29q36 0 68 17.5t43 45.5l136 -38q-32 -64 -98 -102t-154 -38zM191 312h226q-4 49 -35.5 78.5t-77.5 29.5q-47 0 -78 -29.5t-35 -78.5zM259 573
l-96 158h145l52 -130z" />
    <glyph glyph-name="eacute" unicode="&#xe9;" horiz-adv-x="604" 
d="M445 730l-95 -158l-102 28l52 130h145zM306 -10q-128 0 -205 78t-77 189q0 118 76 198t206 80q129 0 204.5 -79t75.5 -192q0 -25 -4 -51h-388q4 -50 37.5 -79t79.5 -29q36 0 68 17.5t43 45.5l136 -38q-32 -64 -98 -102t-154 -38zM191 312h226q-4 49 -35.5 78.5
t-77.5 29.5q-47 0 -78 -29.5t-35 -78.5z" />
    <glyph glyph-name="ecircumflex" unicode="&#xea;" horiz-adv-x="604" 
d="M219 586l-82 36l110 108h115l109 -108l-82 -36l-85 63zM306 -10q-128 0 -205 78t-77 189q0 118 76 198t206 80q129 0 204.5 -79t75.5 -192q0 -25 -4 -51h-388q4 -50 37.5 -79t79.5 -29q36 0 68 17.5t43 45.5l136 -38q-32 -64 -98 -102t-154 -38zM191 312h226
q-4 49 -35.5 78.5t-77.5 29.5q-47 0 -78 -29.5t-35 -78.5z" />
    <glyph glyph-name="edieresis" unicode="&#xeb;" horiz-adv-x="604" 
d="M266 594h-132v129h132v-129zM476 594h-132v129h132v-129zM306 -10q-128 0 -205 78t-77 189q0 118 76 198t206 80q129 0 204.5 -79t75.5 -192q0 -25 -4 -51h-388q4 -50 37.5 -79t79.5 -29q36 0 68 17.5t43 45.5l136 -38q-32 -64 -98 -102t-154 -38zM191 312h226
q-4 49 -35.5 78.5t-77.5 29.5q-47 0 -78 -29.5t-35 -78.5z" />
    <glyph glyph-name="igrave" unicode="&#xec;" 
d="M214 0h-160v525h160v-525zM89 573l-96 158h145l52 -130z" />
    <glyph glyph-name="iacute" unicode="&#xed;" 
d="M275 730l-95 -158l-102 28l52 130h145zM214 0h-160v525h160v-525z" />
    <glyph glyph-name="icircumflex" unicode="&#xee;" 
d="M49 586l-82 36l110 108h115l109 -108l-82 -36l-85 63zM214 0h-160v525h160v-525z" />
    <glyph glyph-name="idieresis" unicode="&#xef;" 
d="M95 594h-132v129h132v-129zM305 594h-132v129h132v-129zM214 0h-160v525h160v-525z" />
    <glyph glyph-name="eth" unicode="&#xf0;" horiz-adv-x="617" 
d="M493 712l44 -61l-66 -36q56 -68 86.5 -153.5t30.5 -170.5q0 -140 -77 -220.5t-205 -80.5q-121 0 -200 69t-79 175q0 99 69.5 168.5t169.5 69.5q97 0 158 -64q-20 84 -75 154l-86 -46l-44 61l77 41q-67 59 -168 112h199q48 -24 89 -59zM191 234q0 -47 32.5 -78t83.5 -31
t84 31.5t33 79.5q0 47 -33 77.5t-83 30.5q-51 0 -84 -31t-33 -79z" />
    <glyph glyph-name="ntilde" unicode="&#xf1;" horiz-adv-x="611" 
d="M561 336v-336h-160v295q0 99 -71 99q-34 0 -68 -26.5t-48 -66.5v-301h-160v525h144v-88q29 47 82.5 72.5t121.5 25.5q159 0 159 -199zM387 588q-33 0 -73 23t-60 23t-31.5 -12.5t-13.5 -21t-2 -14.5h-86q0 20 11 50.5t42 61t74 30.5q34 0 73 -24t60 -24t33.5 12.5
t15.5 22.5t3 15h86q0 -10 -7.5 -31.5t-21.5 -47t-41.5 -44.5t-61.5 -19z" />
    <glyph glyph-name="ograve" unicode="&#xf2;" horiz-adv-x="609" 
d="M305 -10q-129 0 -205 79.5t-76 192.5q0 114 76 193.5t205 79.5t205 -79.5t76 -193.5q0 -113 -76 -192.5t-205 -79.5zM188 262q0 -61 33 -99t84 -38q50 0 83 38.5t33 98.5q0 61 -33 99t-83 38t-83.5 -38.5t-33.5 -98.5zM260 573l-96 158h145l52 -130z" />
    <glyph glyph-name="oacute" unicode="&#xf3;" horiz-adv-x="609" 
d="M445 730l-95 -158l-102 28l52 130h145zM305 -10q-129 0 -205 79.5t-76 192.5q0 114 76 193.5t205 79.5t205 -79.5t76 -193.5q0 -113 -76 -192.5t-205 -79.5zM188 262q0 -61 33 -99t84 -38q50 0 83 38.5t33 98.5q0 61 -33 99t-83 38t-83.5 -38.5t-33.5 -98.5z" />
    <glyph glyph-name="ocircumflex" unicode="&#xf4;" horiz-adv-x="609" 
d="M219 586l-82 36l110 108h115l109 -108l-82 -36l-85 63zM305 -10q-129 0 -205 79.5t-76 192.5q0 114 76 193.5t205 79.5t205 -79.5t76 -193.5q0 -113 -76 -192.5t-205 -79.5zM188 262q0 -61 33 -99t84 -38q50 0 83 38.5t33 98.5q0 61 -33 99t-83 38t-83.5 -38.5
t-33.5 -98.5z" />
    <glyph glyph-name="otilde" unicode="&#xf5;" horiz-adv-x="609" 
d="M305 -10q-129 0 -205 79.5t-76 192.5q0 114 76 193.5t205 79.5t205 -79.5t76 -193.5q0 -113 -76 -192.5t-205 -79.5zM188 262q0 -61 33 -99t84 -38q50 0 83 38.5t33 98.5q0 61 -33 99t-83 38t-83.5 -38.5t-33.5 -98.5zM368 588q-32 0 -72 23t-61 23q-20 0 -31.5 -12.5
t-13.5 -21t-2 -14.5h-86q0 20 11 50.5t42 61t74 30.5q33 0 72 -24t61 -24q21 0 33.5 12.5t15.5 22.5t3 15h86q0 -10 -7.5 -31.5t-21.5 -47t-41.5 -44.5t-61.5 -19z" />
    <glyph glyph-name="odieresis" unicode="&#xf6;" horiz-adv-x="609" 
d="M266 594h-132v129h132v-129zM476 594h-132v129h132v-129zM305 -10q-129 0 -205 79.5t-76 192.5q0 114 76 193.5t205 79.5t205 -79.5t76 -193.5q0 -113 -76 -192.5t-205 -79.5zM188 262q0 -61 33 -99t84 -38q50 0 83 38.5t33 98.5q0 61 -33 99t-83 38t-83.5 -38.5
t-33.5 -98.5z" />
    <glyph glyph-name="divide" unicode="&#xf7;" horiz-adv-x="498" 
d="M317 426h-135v143h135v-143zM317 38h-135v143h135v-143zM451 240h-404v127h404v-127z" />
    <glyph glyph-name="oslash" unicode="&#xf8;" horiz-adv-x="609" 
d="M33 -5l65 75q-74 77 -74 192q0 114 76 193.5t205 79.5q83 0 149 -37l27 32h88l-62 -72q79 -77 79 -196q0 -113 -76 -192.5t-205 -79.5q-90 0 -155 40l-30 -35h-87zM305 125q50 0 83 38.5t33 98.5q0 44 -19 77l-159 -196q25 -18 62 -18zM188 262q0 -43 16 -74l158 195
q-27 16 -57 16q-50 0 -83.5 -38.5t-33.5 -98.5z" />
    <glyph glyph-name="ugrave" unicode="&#xf9;" horiz-adv-x="633" 
d="M214 -10q-80 0 -122 51t-42 148v336h160v-301q0 -99 73 -99q72 0 115 76v324h160v-345q0 -24 9 -34t32 -11v-135q-44 -8 -76 -8q-84 1 -97 67l-3 32q-70 -101 -209 -101zM259 573l-96 158h145l52 -130z" />
    <glyph glyph-name="uacute" unicode="&#xfa;" horiz-adv-x="633" 
d="M445 730l-95 -158l-102 28l52 130h145zM214 -10q-80 0 -122 51t-42 148v336h160v-301q0 -99 73 -99q72 0 115 76v324h160v-345q0 -24 9 -34t32 -11v-135q-44 -8 -76 -8q-84 1 -97 67l-3 32q-70 -101 -209 -101z" />
    <glyph glyph-name="ucircumflex" unicode="&#xfb;" horiz-adv-x="633" 
d="M219 586l-82 36l110 108h115l109 -108l-82 -36l-85 63zM214 -10q-80 0 -122 51t-42 148v336h160v-301q0 -99 73 -99q72 0 115 76v324h160v-345q0 -24 9 -34t32 -11v-135q-44 -8 -76 -8q-84 1 -97 67l-3 32q-70 -101 -209 -101z" />
    <glyph glyph-name="udieresis" unicode="&#xfc;" horiz-adv-x="633" 
d="M265 594h-132v129h132v-129zM475 594h-132v129h132v-129zM214 -10q-80 0 -122 51t-42 148v336h160v-301q0 -99 73 -99q72 0 115 76v324h160v-345q0 -24 9 -34t32 -11v-135q-44 -8 -76 -8q-84 1 -97 67l-3 32q-70 -101 -209 -101z" />
    <glyph glyph-name="yacute" unicode="&#xfd;" horiz-adv-x="545" 
d="M52 -216v137q42 -13 73 -13q26 0 42.5 21t27.5 71l-199 525h164l123 -388l105 388h149l-201 -610q-22 -66 -74.5 -105.5t-121.5 -40.5q-48 0 -88 15zM424 730l-95 -158l-102 28l52 130h145z" />
    <glyph glyph-name="thorn" unicode="&#xfe;" horiz-adv-x="600" 
d="M577 256q-1 -113 -80 -198t-186 -85q-37 0 -61 11t-32 24v-221h-164v923h164v-207q29 38 100 38q113 0 186 -88t73 -197zM412 259q0 59 -28 99t-76 40q-55 0 -90 -66v-155q0 -20 28 -40.5t59 -20.5q47 0 77 41t30 102z" />
    <glyph glyph-name="ydieresis" unicode="&#xff;" horiz-adv-x="545" 
d="M52 -216v137q42 -13 73 -13q26 0 42.5 21t27.5 71l-199 525h164l123 -388l105 388h149l-201 -610q-22 -66 -74.5 -105.5t-121.5 -40.5q-48 0 -88 15zM244 594h-132v129h132v-129zM454 594h-132v129h132v-129z" />
    <glyph glyph-name="Amacron" unicode="&#x100;" horiz-adv-x="673" 
d="M172 0h-174l273 710h133l272 -710h-174l-55 159h-221zM419 272l-82 264l-85 -264h167zM490 806h-304v97h304v-97z" />
    <glyph glyph-name="amacron" unicode="&#x101;" horiz-adv-x="590" 
d="M204 -10q-78 0 -130 48t-52 119q0 77 63 126t162 49q69 0 118 -22v24q0 91 -105 91q-77 0 -164 -58l-47 100q104 68 227 68q119 0 184 -56.5t65 -163.5v-135q0 -24 9 -34t32 -11v-135q-40 -8 -77 -8q-84 1 -96 67l-3 24q-73 -93 -186 -93zM251 105q56 0 91 33
q23 18 23 38v50q-48 17 -91 17q-44 0 -72.5 -20.5t-28.5 -51.5q0 -29 22 -47.5t56 -18.5zM429 621h-304v97h304v-97z" />
    <glyph glyph-name="Abreve" unicode="&#x102;" horiz-adv-x="673" 
d="M172 0h-174l273 710h133l272 -710h-174l-55 159h-221zM419 272l-82 264l-85 -264h167zM337 838q23 0 40.5 21.5t20.5 55.5h83q0 -65 -40 -106t-104 -41q-63 0 -103.5 41.5t-40.5 105.5h85q0 -31 17.5 -54t41.5 -23z" />
    <glyph glyph-name="abreve" unicode="&#x103;" horiz-adv-x="590" 
d="M204 -10q-78 0 -130 48t-52 119q0 77 63 126t162 49q69 0 118 -22v24q0 91 -105 91q-77 0 -164 -58l-47 100q104 68 227 68q119 0 184 -56.5t65 -163.5v-135q0 -24 9 -34t32 -11v-135q-40 -8 -77 -8q-84 1 -96 67l-3 24q-73 -93 -186 -93zM251 105q56 0 91 33
q23 18 23 38v50q-48 17 -91 17q-44 0 -72.5 -20.5t-28.5 -51.5q0 -29 22 -47.5t56 -18.5zM275 653q23 0 40.5 21.5t20.5 55.5h83q0 -65 -40 -106t-104 -41q-63 0 -103.5 41.5t-40.5 105.5h85q0 -31 17.5 -54t41.5 -23z" />
    <glyph glyph-name="Aogonek" unicode="&#x104;" horiz-adv-x="673" 
d="M628 -205q-57 8 -87.5 33.5t-30.5 59.5q0 61 84 112h-92l-55 159h-221l-54 -159h-174l273 710h133l272 -710q-82 -48 -82 -89q0 -38 65 -39zM419 272l-82 264l-85 -264h167z" />
    <glyph glyph-name="aogonek" unicode="&#x105;" horiz-adv-x="590" 
d="M518 -205q-57 8 -87.5 33.5t-30.5 59.5q0 56 73 105q-69 7 -80 66l-3 24q-73 -93 -186 -93q-78 0 -130 48t-52 119q0 77 63 126t162 49q69 0 118 -22v24q0 91 -105 91q-77 0 -164 -58l-47 100q104 68 227 68q119 0 184 -56.5t65 -163.5v-135q0 -24 9 -34t32 -11v-135
q-82 -48 -82 -89q0 -38 65 -39zM251 105q56 0 91 33q23 18 23 38v50q-48 17 -91 17q-44 0 -72.5 -20.5t-28.5 -51.5q0 -29 22 -47.5t56 -18.5z" />
    <glyph glyph-name="Cacute" unicode="&#x106;" horiz-adv-x="663" 
d="M509 915l-95 -158l-102 28l52 130h145zM27 361q0 88 39.5 167.5t119.5 132.5t183 53q92 0 163 -42t106 -113l-126 -88q-20 52 -60.5 74.5t-86.5 22.5q-82 0 -126.5 -64t-44.5 -149q0 -88 48.5 -151.5t124.5 -63.5q45 0 86 24t59 74l135 -79q-30 -75 -112.5 -120
t-171.5 -45q-95 0 -173.5 54t-120.5 137.5t-42 175.5z" />
    <glyph glyph-name="cacute" unicode="&#x107;" horiz-adv-x="570" 
d="M446 730l-95 -158l-102 28l52 130h145zM24 263q0 114 76.5 193t205.5 79q87 0 150.5 -37.5t95.5 -101.5l-156 -47q-31 50 -91 50q-50 0 -83.5 -37.5t-33.5 -98.5t33.5 -99.5t83.5 -38.5q30 0 55 14.5t37 37.5l156 -48q-30 -63 -94.5 -101t-152.5 -38q-128 0 -205 79.5
t-77 193.5z" />
    <glyph glyph-name="Ccircumflex" unicode="&#x108;" horiz-adv-x="663" 
d="M283 771l-82 36l110 108h115l109 -108l-82 -36l-85 63zM27 361q0 88 39.5 167.5t119.5 132.5t183 53q92 0 163 -42t106 -113l-126 -88q-20 52 -60.5 74.5t-86.5 22.5q-82 0 -126.5 -64t-44.5 -149q0 -88 48.5 -151.5t124.5 -63.5q45 0 86 24t59 74l135 -79
q-30 -75 -112.5 -120t-171.5 -45q-95 0 -173.5 54t-120.5 137.5t-42 175.5z" />
    <glyph glyph-name="ccircumflex" unicode="&#x109;" horiz-adv-x="570" 
d="M220 586l-82 36l110 108h115l109 -108l-82 -36l-85 63zM24 263q0 114 76.5 193t205.5 79q87 0 150.5 -37.5t95.5 -101.5l-156 -47q-31 50 -91 50q-50 0 -83.5 -37.5t-33.5 -98.5t33.5 -99.5t83.5 -38.5q30 0 55 14.5t37 37.5l156 -48q-30 -63 -94.5 -101t-152.5 -38
q-128 0 -205 79.5t-77 193.5z" />
    <glyph glyph-name="Cdotaccent" unicode="&#x10a;" horiz-adv-x="663" 
d="M27 361q0 88 39.5 167.5t119.5 132.5t183 53q92 0 163 -42t106 -113l-126 -88q-20 52 -60.5 74.5t-86.5 22.5q-82 0 -126.5 -64t-44.5 -149q0 -88 48.5 -151.5t124.5 -63.5q45 0 86 24t59 74l135 -79q-30 -75 -112.5 -120t-171.5 -45q-95 0 -173.5 54t-120.5 137.5
t-42 175.5zM441 778h-144v137h144v-137z" />
    <glyph glyph-name="cdotaccent" unicode="&#x10b;" horiz-adv-x="570" 
d="M24 263q0 114 76.5 193t205.5 79q87 0 150.5 -37.5t95.5 -101.5l-156 -47q-31 50 -91 50q-50 0 -83.5 -37.5t-33.5 -98.5t33.5 -99.5t83.5 -38.5q30 0 55 14.5t37 37.5l156 -48q-30 -63 -94.5 -101t-152.5 -38q-128 0 -205 79.5t-77 193.5zM378 593h-144v137h144v-137z
" />
    <glyph glyph-name="Ccaron" unicode="&#x10c;" horiz-adv-x="663" 
d="M201 878l82 37l85 -63l85 63l82 -37l-109 -107h-115zM27 361q0 88 39.5 167.5t119.5 132.5t183 53q92 0 163 -42t106 -113l-126 -88q-20 52 -60.5 74.5t-86.5 22.5q-82 0 -126.5 -64t-44.5 -149q0 -88 48.5 -151.5t124.5 -63.5q45 0 86 24t59 74l135 -79
q-30 -75 -112.5 -120t-171.5 -45q-95 0 -173.5 54t-120.5 137.5t-42 175.5z" />
    <glyph glyph-name="ccaron" unicode="&#x10d;" horiz-adv-x="570" 
d="M138 693l82 37l85 -63l85 63l82 -37l-109 -107h-115zM24 263q0 114 76.5 193t205.5 79q87 0 150.5 -37.5t95.5 -101.5l-156 -47q-31 50 -91 50q-50 0 -83.5 -37.5t-33.5 -98.5t33.5 -99.5t83.5 -38.5q30 0 55 14.5t37 37.5l156 -48q-30 -63 -94.5 -101t-152.5 -38
q-128 0 -205 79.5t-77 193.5z" />
    <glyph glyph-name="Dcaron" unicode="&#x10e;" horiz-adv-x="717" 
d="M157 878l82 37l85 -63l85 63l82 -37l-109 -107h-115zM333 0h-265v710h265q169 0 261.5 -100t92.5 -254q0 -161 -97 -258.5t-257 -97.5zM520 356q0 95 -50 152.5t-137 57.5h-101v-422h101q88 0 137.5 59t49.5 153z" />
    <glyph glyph-name="dcaron" unicode="&#x10f;" horiz-adv-x="660" 
d="M806 730l-95 -158l-102 28l52 130h145zM273 -10q-108 0 -178 77.5t-70 195.5q0 116 65.5 194t166.5 78q54 0 99 -26t69 -70v291h160v-550q0 -24 9 -34t32 -11v-135q-44 -8 -77 -8q-84 2 -96 67l-3 28q-28 -47 -75 -72t-102 -25zM316 125q33 0 63.5 20t46.5 53v110
q-15 40 -48.5 65.5t-69.5 25.5q-51 0 -84.5 -41t-33.5 -98q0 -59 35.5 -97t90.5 -38z" />
    <glyph glyph-name="Dcroat" unicode="&#x110;" horiz-adv-x="722" 
d="M337 0h-265v298h-43v118h43v294h265q169 0 261.5 -100t92.5 -254q0 -161 -97 -258.5t-257 -97.5zM524 356q0 95 -50 152.5t-137 57.5h-101v-150h128v-118h-128v-154h101q88 0 137.5 59t49.5 153z" />
    <glyph glyph-name="dcroat" unicode="&#x111;" horiz-adv-x="660" 
d="M273 -10q-108 0 -178 77.5t-70 195.5q0 116 65.5 194t166.5 78q54 0 99 -26t69 -70v149h-94v94h94v48h160v-48h61v-94h-61v-408q0 -24 9 -34t32 -11v-135q-44 -8 -77 -8q-84 2 -96 67l-3 28q-28 -47 -75 -72t-102 -25zM316 125q33 0 63.5 20t46.5 53v110
q-15 40 -48.5 65.5t-69.5 25.5q-51 0 -84.5 -41t-33.5 -98q0 -59 35.5 -97t90.5 -38z" />
    <glyph glyph-name="Emacron" unicode="&#x112;" horiz-adv-x="601" 
d="M232 144h335v-144h-499v710h490v-144h-326v-138h280v-133h-280v-151zM474 806h-304v97h304v-97z" />
    <glyph glyph-name="emacron" unicode="&#x113;" horiz-adv-x="604" 
d="M306 -10q-128 0 -205 78t-77 189q0 118 76 198t206 80q129 0 204.5 -79t75.5 -192q0 -25 -4 -51h-388q4 -50 37.5 -79t79.5 -29q36 0 68 17.5t43 45.5l136 -38q-32 -64 -98 -102t-154 -38zM191 312h226q-4 49 -35.5 78.5t-77.5 29.5q-47 0 -78 -29.5t-35 -78.5zM457 621
h-304v97h304v-97z" />
    <glyph glyph-name="Ebreve" unicode="&#x114;" horiz-adv-x="601" 
d="M232 144h335v-144h-499v710h490v-144h-326v-138h280v-133h-280v-151zM321 838q23 0 40.5 21.5t20.5 55.5h83q0 -65 -40 -106t-104 -41q-63 0 -103.5 41.5t-40.5 105.5h85q0 -31 17.5 -54t41.5 -23z" />
    <glyph glyph-name="ebreve" unicode="&#x115;" horiz-adv-x="604" 
d="M306 -10q-128 0 -205 78t-77 189q0 118 76 198t206 80q129 0 204.5 -79t75.5 -192q0 -25 -4 -51h-388q4 -50 37.5 -79t79.5 -29q36 0 68 17.5t43 45.5l136 -38q-32 -64 -98 -102t-154 -38zM191 312h226q-4 49 -35.5 78.5t-77.5 29.5q-47 0 -78 -29.5t-35 -78.5zM304 653
q23 0 40.5 21.5t20.5 55.5h83q0 -65 -40 -106t-104 -41q-63 0 -103.5 41.5t-40.5 105.5h85q0 -31 17.5 -54t41.5 -23z" />
    <glyph glyph-name="Edotaccent" unicode="&#x116;" horiz-adv-x="601" 
d="M232 144h335v-144h-499v710h490v-144h-326v-138h280v-133h-280v-151zM394 778h-144v137h144v-137z" />
    <glyph glyph-name="edotaccent" unicode="&#x117;" horiz-adv-x="604" 
d="M306 -10q-128 0 -205 78t-77 189q0 118 76 198t206 80q129 0 204.5 -79t75.5 -192q0 -25 -4 -51h-388q4 -50 37.5 -79t79.5 -29q36 0 68 17.5t43 45.5l136 -38q-32 -64 -98 -102t-154 -38zM191 312h226q-4 49 -35.5 78.5t-77.5 29.5q-47 0 -78 -29.5t-35 -78.5zM377 593
h-144v137h144v-137z" />
    <glyph glyph-name="Eogonek" unicode="&#x118;" horiz-adv-x="601" 
d="M232 144h335v-144h-211q-80 -46 -80 -88q0 -38 65 -39l-31 -77q-57 8 -87.5 33.5t-30.5 59.5q0 61 83 111h-207v710h490v-144h-326v-138h280v-133h-280v-151z" />
    <glyph glyph-name="eogonek" unicode="&#x119;" horiz-adv-x="606" 
d="M338 -205q-57 8 -87.5 33.5t-30.5 59.5q0 55 69 103q-121 6 -192.5 82.5t-71.5 183.5q0 118 76 198t206 80q129 0 204.5 -79t75.5 -192q0 -25 -4 -51h-388q4 -50 37.5 -79t79.5 -29q36 0 68 17.5t43 45.5l136 -38q-52 -104 -176 -131q-79 -48 -79 -88q0 -38 65 -39z
M192 312h226q-4 49 -35.5 78.5t-77.5 29.5q-47 0 -78 -29.5t-35 -78.5z" />
    <glyph glyph-name="Ecaron" unicode="&#x11a;" horiz-adv-x="601" 
d="M154 878l82 37l85 -63l85 63l82 -37l-109 -107h-115zM232 144h335v-144h-499v710h490v-144h-326v-138h280v-133h-280v-151z" />
    <glyph glyph-name="ecaron" unicode="&#x11b;" horiz-adv-x="604" 
d="M137 693l82 37l85 -63l85 63l82 -37l-109 -107h-115zM306 -10q-128 0 -205 78t-77 189q0 118 76 198t206 80q129 0 204.5 -79t75.5 -192q0 -25 -4 -51h-388q4 -50 37.5 -79t79.5 -29q36 0 68 17.5t43 45.5l136 -38q-32 -64 -98 -102t-154 -38zM191 312h226
q-4 49 -35.5 78.5t-77.5 29.5q-47 0 -78 -29.5t-35 -78.5z" />
    <glyph glyph-name="Gcircumflex" unicode="&#x11c;" horiz-adv-x="705" 
d="M282 771l-82 36l110 108h115l109 -108l-82 -36l-85 63zM528 0v69q-74 -74 -173 -74q-133 0 -230 109.5t-97 255.5q0 148 98.5 251.5t241.5 103.5q93 0 164 -41.5t107 -113.5l-123 -92q-22 47 -63.5 74t-89.5 27q-74 0 -121 -62t-47 -153q0 -93 49 -153t125 -60
q90 0 159 87v24h-137v119h273v-371h-136z" />
    <glyph glyph-name="gcircumflex" unicode="&#x11d;" horiz-adv-x="639" 
d="M261 586l-82 36l110 108h115l109 -108l-82 -36l-85 63zM258 -2q-102 0 -167 76.5t-65 188.5q0 117 68.5 194.5t175.5 77.5q118 0 176 -96v86h139v-489q0 -119 -84 -189t-220 -70q-158 0 -250 105l85 87q64 -72 165 -72q63 0 103.5 34.5t40.5 104.5v51
q-23 -42 -68.5 -65.5t-98.5 -23.5zM314 125q36 0 65 20t46 53v110q-16 41 -49 66t-70 25q-50 0 -83.5 -42t-33.5 -98q0 -58 35.5 -96t89.5 -38z" />
    <glyph glyph-name="Gbreve" unicode="&#x11e;" horiz-adv-x="705" 
d="M528 0v69q-74 -74 -173 -74q-133 0 -230 109.5t-97 255.5q0 148 98.5 251.5t241.5 103.5q93 0 164 -41.5t107 -113.5l-123 -92q-22 47 -63.5 74t-89.5 27q-74 0 -121 -62t-47 -153q0 -93 49 -153t125 -60q90 0 159 87v24h-137v119h273v-371h-136zM367 838q23 0 40.5 21.5
t20.5 55.5h83q0 -65 -40 -106t-104 -41q-63 0 -103.5 41.5t-40.5 105.5h85q0 -31 17.5 -54t41.5 -23z" />
    <glyph glyph-name="gbreve" unicode="&#x11f;" horiz-adv-x="639" 
d="M258 -2q-102 0 -167 76.5t-65 188.5q0 117 68.5 194.5t175.5 77.5q118 0 176 -96v86h139v-489q0 -119 -84 -189t-220 -70q-158 0 -250 105l85 87q64 -72 165 -72q63 0 103.5 34.5t40.5 104.5v51q-23 -42 -68.5 -65.5t-98.5 -23.5zM314 125q36 0 65 20t46 53v110
q-16 41 -49 66t-70 25q-50 0 -83.5 -42t-33.5 -98q0 -58 35.5 -96t89.5 -38zM346 653q23 0 40.5 21.5t20.5 55.5h83q0 -65 -40 -106t-104 -41q-63 0 -103.5 41.5t-40.5 105.5h85q0 -31 17.5 -54t41.5 -23z" />
    <glyph glyph-name="Gdotaccent" unicode="&#x120;" horiz-adv-x="705" 
d="M528 0v69q-74 -74 -173 -74q-133 0 -230 109.5t-97 255.5q0 148 98.5 251.5t241.5 103.5q93 0 164 -41.5t107 -113.5l-123 -92q-22 47 -63.5 74t-89.5 27q-74 0 -121 -62t-47 -153q0 -93 49 -153t125 -60q90 0 159 87v24h-137v119h273v-371h-136zM440 778h-144v137h144
v-137z" />
    <glyph glyph-name="gdotaccent" unicode="&#x121;" horiz-adv-x="639" 
d="M258 -2q-102 0 -167 76.5t-65 188.5q0 117 68.5 194.5t175.5 77.5q118 0 176 -96v86h139v-489q0 -119 -84 -189t-220 -70q-158 0 -250 105l85 87q64 -72 165 -72q63 0 103.5 34.5t40.5 104.5v51q-23 -42 -68.5 -65.5t-98.5 -23.5zM314 125q36 0 65 20t46 53v110
q-16 41 -49 66t-70 25q-50 0 -83.5 -42t-33.5 -98q0 -58 35.5 -96t89.5 -38zM418 593h-144v137h144v-137z" />
    <glyph glyph-name="Gcommaaccent" unicode="&#x122;" horiz-adv-x="705" 
d="M261 -201v63q38 0 38 27v64h130v-70q0 -52 -42 -68t-126 -16zM528 0v69q-74 -74 -173 -74q-133 0 -230 109.5t-97 255.5q0 148 98.5 251.5t241.5 103.5q93 0 164 -41.5t107 -113.5l-123 -92q-22 47 -63.5 74t-89.5 27q-74 0 -121 -62t-47 -153q0 -93 49 -153t125 -60
q90 0 159 87v24h-137v119h273v-371h-136z" />
    <glyph glyph-name="gcommaaccent" unicode="&#x123;" horiz-adv-x="639" 
d="M487 730l-95 -158l-102 28l52 130h145zM258 -2q-102 0 -167 76.5t-65 188.5q0 117 68.5 194.5t175.5 77.5q118 0 176 -96v86h139v-489q0 -119 -84 -189t-220 -70q-158 0 -250 105l85 87q64 -72 165 -72q63 0 103.5 34.5t40.5 104.5v51q-23 -42 -68.5 -65.5t-98.5 -23.5z
M314 125q36 0 65 20t46 53v110q-16 41 -49 66t-70 25q-50 0 -83.5 -42t-33.5 -98q0 -58 35.5 -96t89.5 -38z" />
    <glyph glyph-name="Hcircumflex" unicode="&#x124;" horiz-adv-x="747" 
d="M291 770l-82 36l110 108h115l109 -108l-82 -36l-85 63zM515 710h164v-710h-164v291h-283v-291h-164v710h164v-275h283v275z" />
    <glyph glyph-name="hcircumflex" unicode="&#x125;" horiz-adv-x="611" 
d="M323 589l-70 35l94 105h97l93 -105l-70 -35l-72 61zM561 336v-336h-160v295q0 99 -76 99q-30 0 -63.5 -26.5t-47.5 -66.5v-301h-160v730h160v-293q28 46 76 72t106 26q165 0 165 -199z" />
    <glyph glyph-name="Hbar" unicode="&#x126;" horiz-adv-x="754" 
d="M518 710h164v-93h51v-76h-51v-541h-164v291h-283v-291h-164v541h-50v76h50v93h164v-93h283v93zM235 435h283v106h-283v-106z" />
    <glyph glyph-name="hbar" unicode="&#x127;" horiz-adv-x="611" 
d="M561 336v-336h-160v295q0 99 -76 99q-30 0 -63.5 -26.5t-47.5 -66.5v-301h-160v588h-37v94h37v48h160v-48h117v-94h-117v-151q28 46 76 72t106 26q165 0 165 -199z" />
    <glyph glyph-name="Itilde" unicode="&#x128;" horiz-adv-x="300" 
d="M232 0h-164v710h164v-710zM213 773q-33 0 -73 23t-60 23t-31.5 -12.5t-13.5 -21t-2 -14.5h-86q0 20 11 50.5t42 61t74 30.5q34 0 73 -24t60 -24t33.5 12.5t15.5 22.5t3 15h86q0 -10 -7.5 -31.5t-21.5 -47t-41.5 -44.5t-61.5 -19z" />
    <glyph glyph-name="itilde" unicode="&#x129;" 
d="M214 0h-160v525h160v-525zM198 588q-32 0 -72 23t-61 23q-20 0 -31.5 -12.5t-13.5 -21t-2 -14.5h-86q0 20 11 50.5t42 61t74 30.5q33 0 72 -24t61 -24q21 0 33.5 12.5t15.5 22.5t3 15h86q0 -10 -7.5 -31.5t-21.5 -47t-41.5 -44.5t-61.5 -19z" />
    <glyph glyph-name="Imacron" unicode="&#x12a;" horiz-adv-x="300" 
d="M232 0h-164v710h164v-710zM303 806h-304v97h304v-97z" />
    <glyph glyph-name="imacron" unicode="&#x12b;" 
d="M214 0h-160v525h160v-525zM287 621h-304v97h304v-97z" />
    <glyph glyph-name="Ibreve" unicode="&#x12c;" horiz-adv-x="300" 
d="M232 0h-164v710h164v-710zM149 838q23 0 40.5 21.5t20.5 55.5h83q0 -65 -40 -106t-104 -41q-63 0 -103.5 41.5t-40.5 105.5h85q0 -31 17.5 -54t41.5 -23z" />
    <glyph glyph-name="ibreve" unicode="&#x12d;" 
d="M214 0h-160v525h160v-525zM134 653q23 0 40.5 21.5t20.5 55.5h83q0 -65 -40 -106t-104 -41q-63 0 -103.5 41.5t-40.5 105.5h85q0 -31 17.5 -54t41.5 -23z" />
    <glyph glyph-name="Iogonek" unicode="&#x12e;" horiz-adv-x="300" 
d="M184 -205q-57 8 -87.5 33.5t-30.5 59.5q0 61 84 112h-82v710h164v-710q-82 -48 -82 -89q0 -38 65 -39z" />
    <glyph glyph-name="iogonek" unicode="&#x12f;" horiz-adv-x="269" 
d="M166 -205q-57 8 -87.5 33.5t-30.5 59.5q0 61 84 112h-78v525h160v-525q-82 -48 -82 -89q0 -38 65 -39zM214 585h-160v145h160v-145z" />
    <glyph glyph-name="Idotaccent" unicode="&#x130;" horiz-adv-x="300" 
d="M232 0h-164v710h164v-710zM222 778h-144v137h144v-137z" />
    <glyph glyph-name="dotlessi" unicode="&#x131;" 
d="M214 0h-160v525h160v-525z" />
    <glyph glyph-name="IJ" unicode="&#x132;" horiz-adv-x="798" 
d="M232 0h-164v710h164v-710zM308 33l36 134q13 -10 46.5 -21t71.5 -11q70 0 91 46.5t21 167.5v361h164v-361q0 -72 -5 -121t-21.5 -98t-46 -77.5t-80.5 -46t-123 -17.5q-90 0 -154 44z" />
    <glyph glyph-name="ij" unicode="&#x133;" horiz-adv-x="537" 
d="M214 0h-160v525h160v-525zM214 585h-160v145h160v-145zM289 -202q-82 0 -140 50l67 109q20 -21 53 -21q23 0 38 15t15 40v534h160v-522q0 -90 -54.5 -147.5t-138.5 -57.5zM482 585h-160v145h160v-145z" />
    <glyph glyph-name="Jcircumflex" unicode="&#x134;" horiz-adv-x="498" 
d="M273 771l-82 36l110 108h115l109 -108l-82 -36l-85 63zM8 33l36 134q13 -10 46.5 -21t71.5 -11q70 0 91 46.5t21 167.5v361h164v-361q0 -72 -5 -121t-21.5 -98t-46 -77.5t-80.5 -46t-123 -17.5q-90 0 -154 44z" />
    <glyph glyph-name="jcircumflex" unicode="&#x135;" 
d="M21 -202q-82 0 -140 50l67 109q20 -21 53 -21q23 0 38 15t15 40v534h160v-522q0 -90 -54.5 -147.5t-138.5 -57.5zM49 586l-82 36l110 108h115l109 -108l-82 -36l-85 63z" />
    <glyph glyph-name="Kcommaaccent" unicode="&#x136;" horiz-adv-x="677" 
d="M256 -201v63q38 0 38 27v64h130v-70q0 -52 -42 -68t-126 -16zM232 0h-164v710h164v-320l274 320h170l-266 -317l284 -393h-173l-208 301l-81 -88v-213z" />
    <glyph glyph-name="kcommaaccent" unicode="&#x137;" horiz-adv-x="568" 
d="M189 -201v63q38 0 38 27v64h130v-70q0 -52 -42 -68t-126 -16zM577 0h-170l-137 211l-56 -58v-153h-160v730h160v-423l178 218h170l-189 -226z" />
    <glyph glyph-name="kgreenlandic" unicode="&#x138;" horiz-adv-x="568" 
d="M577 0h-170l-137 211l-56 -58v-153h-160v525h160v-218l178 218h170l-189 -226z" />
    <glyph glyph-name="Lacute" unicode="&#x139;" horiz-adv-x="589" 
d="M505 915l-95 -158l-102 28l52 130h145zM576 0h-508v710h164v-566h344v-144z" />
    <glyph glyph-name="lacute" unicode="&#x13a;" horiz-adv-x="339" 
d="M272 920l-95 -158l-102 28l52 130h145zM53 131v599h160v-534q0 -60 52 -60q24 0 52 14l21 -129q-67 -30 -141 -30q-69 0 -106.5 36.5t-37.5 103.5z" />
    <glyph glyph-name="Lcommaaccent" unicode="&#x13b;" horiz-adv-x="589" 
d="M232 -201v63q38 0 38 27v64h130v-70q0 -52 -42 -68t-126 -16zM576 0h-508v710h164v-566h344v-144z" />
    <glyph glyph-name="lcommaaccent" unicode="&#x13c;" horiz-adv-x="339" 
d="M91 -201v63q38 0 38 27v64h130v-70q0 -52 -42 -68t-126 -16zM53 131v599h160v-534q0 -60 52 -60q24 0 52 14l21 -129q-67 -30 -141 -30q-69 0 -106.5 36.5t-37.5 103.5z" />
    <glyph glyph-name="Lcaron" unicode="&#x13d;" horiz-adv-x="589" 
d="M520 729l-95 -158l-102 28l52 130h145zM576 0h-508v710h164v-566h344v-144z" />
    <glyph glyph-name="lcaron" unicode="&#x13e;" horiz-adv-x="339" 
d="M447 729l-95 -158l-102 28l52 130h145zM53 131v599h160v-534q0 -60 52 -60q24 0 52 14l21 -129q-67 -30 -141 -30q-69 0 -106.5 36.5t-37.5 103.5z" />
    <glyph glyph-name="Ldot" unicode="&#x13f;" horiz-adv-x="589" 
d="M576 0h-508v710h164v-566h344v-144zM495 325h-130v166h130v-166z" />
    <glyph glyph-name="ldot" unicode="&#x140;" horiz-adv-x="428" 
d="M53 131v599h160v-534q0 -60 52 -60q24 0 52 14l21 -129q-67 -30 -141 -30q-69 0 -106.5 36.5t-37.5 103.5zM412 290h-130v166h130v-166z" />
    <glyph glyph-name="Lslash" unicode="&#x141;" horiz-adv-x="599" 
d="M587 0h-508v274l-50 -28l-38 86l88 49v329h164v-236l92 52l38 -86l-130 -74v-222h344v-144z" />
    <glyph glyph-name="lslash" unicode="&#x142;" horiz-adv-x="367" 
d="M77 131v155l-47 -25l-38 86l85 46v337h160v-250l84 46l38 -86l-122 -67v-177q0 -60 52 -60q24 0 52 14l21 -129q-67 -30 -141 -30q-69 0 -106.5 36.5t-37.5 103.5z" />
    <glyph glyph-name="Nacute" unicode="&#x143;" horiz-adv-x="759" 
d="M519 914l-95 -158l-102 28l52 130h145zM559 0l-327 406v-406h-164v710h128l331 -417v417h164v-710h-132z" />
    <glyph glyph-name="nacute" unicode="&#x144;" horiz-adv-x="611" 
d="M464 730l-95 -158l-102 28l52 130h145zM561 336v-336h-160v295q0 99 -71 99q-34 0 -68 -26.5t-48 -66.5v-301h-160v525h144v-88q29 47 82.5 72.5t121.5 25.5q159 0 159 -199z" />
    <glyph glyph-name="Ncommaaccent" unicode="&#x145;" horiz-adv-x="759" 
d="M273 -201v63q38 0 38 27v64h130v-70q0 -52 -42 -68t-126 -16zM559 0l-327 406v-406h-164v710h128l331 -417v417h164v-710h-132z" />
    <glyph glyph-name="ncommaaccent" unicode="&#x146;" horiz-adv-x="611" 
d="M201 -201v63q38 0 38 27v64h130v-70q0 -52 -42 -68t-126 -16zM561 336v-336h-160v295q0 99 -71 99q-34 0 -68 -26.5t-48 -66.5v-301h-160v525h144v-88q29 47 82.5 72.5t121.5 25.5q159 0 159 -199z" />
    <glyph glyph-name="Ncaron" unicode="&#x147;" horiz-adv-x="759" 
d="M211 877l82 37l85 -63l85 63l82 -37l-109 -107h-115zM559 0l-327 406v-406h-164v710h128l331 -417v417h164v-710h-132z" />
    <glyph glyph-name="ncaron" unicode="&#x148;" horiz-adv-x="611" 
d="M156 693l82 37l85 -63l85 63l82 -37l-109 -107h-115zM561 336v-336h-160v295q0 99 -71 99q-34 0 -68 -26.5t-48 -66.5v-301h-160v525h144v-88q29 47 82.5 72.5t121.5 25.5q159 0 159 -199z" />
    <glyph glyph-name="napostrophe" unicode="&#x149;" horiz-adv-x="611" 
d="M165 730l-96 -158l-102 28l33 80l-8 50h173zM561 336v-336h-160v295q0 99 -71 99q-34 0 -68 -26.5t-48 -66.5v-301h-160v525h144v-88q29 47 82.5 72.5t121.5 25.5q159 0 159 -199z" />
    <glyph glyph-name="Eng" unicode="&#x14a;" horiz-adv-x="742" 
d="M514 35l-282 366v-401h-164v710h126l316 -409v408h164v-711q0 -89 -55.5 -144.5t-137.5 -55.5t-140 50l67 109q20 -21 53 -21q23 0 38 15.5t15 39.5v44z" />
    <glyph glyph-name="eng" unicode="&#x14b;" horiz-adv-x="610" 
d="M367 -202q-82 0 -140 50l67 109q20 -21 53 -21q23 0 38.5 15.5t15.5 39.5v304q0 99 -71 99q-34 0 -68 -26.5t-48 -66.5v-301h-160v525h144v-88q29 47 82.5 72.5t121.5 25.5q158 0 158 -199v-333q0 -90 -55 -147.5t-138 -57.5z" />
    <glyph glyph-name="Omacron" unicode="&#x14c;" horiz-adv-x="734" 
d="M522 806h-304v97h304v-97zM366 -6q-146 0 -242 109.5t-96 252.5q0 144 98 251t243 107q146 0 241.5 -109.5t95.5 -251.5q0 -144 -98 -251.5t-242 -107.5zM195 354q0 -87 46.5 -150.5t126.5 -63.5q81 0 126 64.5t45 151.5t-46.5 149.5t-125.5 62.5q-81 0 -126.5 -63.5
t-45.5 -150.5z" />
    <glyph glyph-name="omacron" unicode="&#x14d;" horiz-adv-x="609" 
d="M458 621h-304v97h304v-97zM305 -10q-129 0 -205 79.5t-76 192.5q0 114 76 193.5t205 79.5t205 -79.5t76 -193.5q0 -113 -76 -192.5t-205 -79.5zM188 262q0 -61 33 -99t84 -38q50 0 83 38.5t33 98.5q0 61 -33 99t-83 38t-83.5 -38.5t-33.5 -98.5z" />
    <glyph glyph-name="Obreve" unicode="&#x14e;" horiz-adv-x="734" 
d="M366 -6q-146 0 -242 109.5t-96 252.5q0 144 98 251t243 107q146 0 241.5 -109.5t95.5 -251.5q0 -144 -98 -251.5t-242 -107.5zM195 354q0 -87 46.5 -150.5t126.5 -63.5q81 0 126 64.5t45 151.5t-46.5 149.5t-125.5 62.5q-81 0 -126.5 -63.5t-45.5 -150.5zM369 838
q23 0 40.5 21.5t20.5 55.5h83q0 -65 -40 -106t-104 -41q-63 0 -103.5 41.5t-40.5 105.5h85q0 -31 17.5 -54t41.5 -23z" />
    <glyph glyph-name="obreve" unicode="&#x14f;" horiz-adv-x="609" 
d="M305 -10q-129 0 -205 79.5t-76 192.5q0 114 76 193.5t205 79.5t205 -79.5t76 -193.5q0 -113 -76 -192.5t-205 -79.5zM188 262q0 -61 33 -99t84 -38q50 0 83 38.5t33 98.5q0 61 -33 99t-83 38t-83.5 -38.5t-33.5 -98.5zM304 653q23 0 40.5 21.5t20.5 55.5h83
q0 -65 -40 -106t-104 -41q-63 0 -103.5 41.5t-40.5 105.5h85q0 -31 17.5 -54t41.5 -23z" />
    <glyph glyph-name="Ohungarumlaut" unicode="&#x150;" horiz-adv-x="734" 
d="M394 916l-88 -158l-77 28l45 130h120zM568 916l-87 -158l-77 28l44 130h120zM366 -6q-146 0 -242 109.5t-96 252.5q0 144 98 251t243 107q146 0 241.5 -109.5t95.5 -251.5q0 -144 -98 -251.5t-242 -107.5zM195 354q0 -87 46.5 -150.5t126.5 -63.5q81 0 126 64.5t45 151.5
t-46.5 149.5t-125.5 62.5q-81 0 -126.5 -63.5t-45.5 -150.5z" />
    <glyph glyph-name="ohungarumlaut" unicode="&#x151;" horiz-adv-x="609" 
d="M329 731l-88 -158l-77 28l45 130h120zM503 731l-87 -158l-77 28l44 130h120zM305 -10q-129 0 -205 79.5t-76 192.5q0 114 76 193.5t205 79.5t205 -79.5t76 -193.5q0 -113 -76 -192.5t-205 -79.5zM188 262q0 -61 33 -99t84 -38q50 0 83 38.5t33 98.5q0 61 -33 99t-83 38
t-83.5 -38.5t-33.5 -98.5z" />
    <glyph glyph-name="OE" unicode="&#x152;" horiz-adv-x="1062" 
d="M711 144h318v-144h-483v75q-77 -80 -180 -80q-146 0 -242 109t-96 252q0 144 98 251.5t243 107.5q101 0 177 -79v74h474v-144h-309v-133h255v-143h-255v-146zM368 141q81 0 126 64t45 151t-46.5 150t-125.5 63q-81 0 -126.5 -64t-45.5 -151t46.5 -150t126.5 -63z" />
    <glyph glyph-name="oe" unicode="&#x153;" horiz-adv-x="1003" 
d="M303 -10q-122 0 -200.5 77t-78.5 195q0 119 78.5 196t199.5 77q124 0 201 -106q82 106 203 106t198.5 -76.5t79.5 -196.5q0 -23 -4 -49h-388q4 -47 38 -79t83 -32q38 0 70 19t43 47l131 -38q-32 -65 -99.5 -102.5t-149.5 -37.5q-57 0 -105.5 24t-99.5 76
q-50 -53 -96.5 -76.5t-103.5 -23.5zM305 125q51 0 83.5 38.5t32.5 98.5t-32.5 98.5t-83.5 38.5t-84 -38.5t-33 -98.5q0 -61 33 -99t84 -38zM587 310h231q-5 49 -37.5 79.5t-79.5 30.5t-78 -30.5t-36 -79.5z" />
    <glyph glyph-name="Racute" unicode="&#x154;" horiz-adv-x="680" 
d="M460 914l-95 -158l-102 28l52 130h145zM232 0h-164v710h320q97 0 164.5 -74t67.5 -166q0 -65 -31.5 -121t-84.5 -85l163 -264h-185l-143 229h-107v-229zM232 566v-194h150q30 0 50.5 28t20.5 70t-23.5 69t-52.5 27h-145z" />
    <glyph glyph-name="racute" unicode="&#x155;" horiz-adv-x="401" 
d="M385 730l-95 -158l-102 28l52 130h145zM387 532v-144q-130 -2 -173 -73v-315h-160v525h147v-106q28 52 70.5 82t90.5 32q20 0 25 -1z" />
    <glyph glyph-name="Rcommaaccent" unicode="&#x156;" horiz-adv-x="680" 
d="M243 -201v63q38 0 38 27v64h130v-70q0 -52 -42 -68t-126 -16zM232 0h-164v710h320q97 0 164.5 -74t67.5 -166q0 -65 -31.5 -121t-84.5 -85l163 -264h-185l-143 229h-107v-229zM232 566v-194h150q30 0 50.5 28t20.5 70t-23.5 69t-52.5 27h-145z" />
    <glyph glyph-name="rcommaaccent" unicode="&#x157;" horiz-adv-x="401" 
d="M24 -201v63q38 0 38 27v64h130v-70q0 -52 -42 -68t-126 -16zM387 532v-144q-130 -2 -173 -73v-315h-160v525h147v-106q28 52 70.5 82t90.5 32q20 0 25 -1z" />
    <glyph glyph-name="Rcaron" unicode="&#x158;" horiz-adv-x="680" 
d="M152 877l82 37l85 -63l85 63l82 -37l-109 -107h-115zM232 0h-164v710h320q97 0 164.5 -74t67.5 -166q0 -65 -31.5 -121t-84.5 -85l163 -264h-185l-143 229h-107v-229zM232 566v-194h150q30 0 50.5 28t20.5 70t-23.5 69t-52.5 27h-145z" />
    <glyph glyph-name="rcaron" unicode="&#x159;" horiz-adv-x="401" 
d="M77 693l82 37l85 -63l85 63l82 -37l-109 -107h-115zM387 532v-144q-130 -2 -173 -73v-315h-160v525h147v-106q28 52 70.5 82t90.5 32q20 0 25 -1z" />
    <glyph glyph-name="Sacute" unicode="&#x15a;" horiz-adv-x="616" 
d="M465 919l-95 -158l-102 28l52 130h145zM566 638l-71 -136q-13 15 -74 41.5t-116 26.5q-87 0 -87 -59q0 -32 30.5 -47.5t109.5 -37.5q5 -1 8 -2q114 -31 168 -77t54 -138q0 -112 -76 -164.5t-191 -52.5q-78 0 -159 23.5t-144 64.5l72 143q18 -19 91 -51t143 -32
q87 0 87 53q0 11 -3.5 20t-13.5 17t-18.5 13.5t-27.5 12t-30.5 10.5t-38 11.5t-39.5 11.5q-102 31 -147 74.5t-45 121.5q0 108 75 169.5t187 61.5q125 0 256 -78z" />
    <glyph glyph-name="sacute" unicode="&#x15b;" horiz-adv-x="517" 
d="M396 730l-95 -158l-102 28l52 130h145zM274 -10q-66 0 -140 18.5t-122 48.5l63 108q107 -62 195 -62q72 0 72 43q0 20 -23 31.5t-88 28.5q-109 28 -150.5 60t-41.5 91q0 79 61 128.5t156 49.5q109 0 225 -62l-63 -101q-94 52 -162 52q-69 0 -69 -44q0 -21 20 -32t79 -25
q118 -30 164 -64.5t46 -98.5q0 -78 -60 -124t-162 -46z" />
    <glyph glyph-name="Scircumflex" unicode="&#x15c;" horiz-adv-x="616" 
d="M239 775l-82 36l110 108h115l109 -108l-82 -36l-85 63zM566 638l-71 -136q-13 15 -74 41.5t-116 26.5q-87 0 -87 -59q0 -32 30.5 -47.5t109.5 -37.5q5 -1 8 -2q114 -31 168 -77t54 -138q0 -112 -76 -164.5t-191 -52.5q-78 0 -159 23.5t-144 64.5l72 143q18 -19 91 -51
t143 -32q87 0 87 53q0 11 -3.5 20t-13.5 17t-18.5 13.5t-27.5 12t-30.5 10.5t-38 11.5t-39.5 11.5q-102 31 -147 74.5t-45 121.5q0 108 75 169.5t187 61.5q125 0 256 -78z" />
    <glyph glyph-name="scircumflex" unicode="&#x15d;" horiz-adv-x="517" 
d="M171 586l-82 36l110 108h115l109 -108l-82 -36l-85 63zM274 -10q-66 0 -140 18.5t-122 48.5l63 108q107 -62 195 -62q72 0 72 43q0 20 -23 31.5t-88 28.5q-109 28 -150.5 60t-41.5 91q0 79 61 128.5t156 49.5q109 0 225 -62l-63 -101q-94 52 -162 52q-69 0 -69 -44
q0 -21 20 -32t79 -25q118 -30 164 -64.5t46 -98.5q0 -78 -60 -124t-162 -46z" />
    <glyph glyph-name="uni015E" unicode="&#x15e;" horiz-adv-x="616" 
d="M206 -183l30 56q33 -20 90 -20q56 0 56 32t-54 32q-38 0 -79 -11l42 87q-156 10 -273 87l72 143q18 -19 91 -51t143 -32q87 0 87 53q0 11 -3.5 20t-13.5 17t-18.5 13.5t-27.5 12t-30.5 10.5t-38 11.5t-39.5 11.5q-102 31 -147 74.5t-45 121.5q0 108 75 169.5t187 61.5
q125 0 256 -78l-71 -136q-13 15 -74 41.5t-116 26.5q-87 0 -87 -59q0 -32 30.5 -47.5t109.5 -37.5q5 -1 8 -2q114 -31 168 -77t54 -138q0 -103 -65 -156t-167 -60l-21 -31q13 3 30 3q39 0 64.5 -18.5t25.5 -55.5q0 -42 -36 -68.5t-104 -26.5q-59 0 -109 21z" />
    <glyph glyph-name="uni015F" unicode="&#x15f;" horiz-adv-x="518" 
d="M163 -183l30 56q33 -20 90 -20q56 0 56 32t-54 32q-38 0 -79 -11l41 85q-62 3 -127 21t-108 45l63 108q107 -62 195 -62q72 0 72 43q0 20 -23 31.5t-88 28.5q-109 28 -150.5 60t-41.5 91q0 79 61 128.5t156 49.5q109 0 225 -62l-63 -101q-94 52 -162 52q-69 0 -69 -44
q0 -21 20 -32t79 -25q118 -30 164 -64.5t46 -98.5q0 -70 -49 -115t-135 -53l-20 -30q14 3 30 3q39 0 64.5 -18.5t25.5 -55.5q0 -42 -36 -68.5t-104 -26.5q-59 0 -109 21z" />
    <glyph glyph-name="Scaron" unicode="&#x160;" horiz-adv-x="616" 
d="M157 882l82 37l85 -63l85 63l82 -37l-109 -107h-115zM566 638l-71 -136q-13 15 -74 41.5t-116 26.5q-87 0 -87 -59q0 -32 30.5 -47.5t109.5 -37.5q5 -1 8 -2q114 -31 168 -77t54 -138q0 -112 -76 -164.5t-191 -52.5q-78 0 -159 23.5t-144 64.5l72 143q18 -19 91 -51
t143 -32q87 0 87 53q0 11 -3.5 20t-13.5 17t-18.5 13.5t-27.5 12t-30.5 10.5t-38 11.5t-39.5 11.5q-102 31 -147 74.5t-45 121.5q0 108 75 169.5t187 61.5q125 0 256 -78z" />
    <glyph glyph-name="scaron" unicode="&#x161;" horiz-adv-x="517" 
d="M89 693l82 37l85 -63l85 63l82 -37l-109 -107h-115zM274 -10q-66 0 -140 18.5t-122 48.5l63 108q107 -62 195 -62q72 0 72 43q0 20 -23 31.5t-88 28.5q-109 28 -150.5 60t-41.5 91q0 79 61 128.5t156 49.5q109 0 225 -62l-63 -101q-94 52 -162 52q-69 0 -69 -44
q0 -21 20 -32t79 -25q118 -30 164 -64.5t46 -98.5q0 -78 -60 -124t-162 -46z" />
    <glyph glyph-name="uni0162" unicode="&#x162;" horiz-adv-x="622" 
d="M206 -183l30 56q33 -20 90 -20q56 0 56 32t-54 32q-38 0 -79 -11l46 94h-66v566h-217v144h597v-144h-216v-566h-32l-26 -38q13 3 30 3q39 0 64.5 -18.5t25.5 -55.5q0 -42 -36 -68.5t-104 -26.5q-59 0 -109 21z" />
    <glyph glyph-name="uni0163" unicode="&#x163;" horiz-adv-x="402" 
d="M123 -183l30 56q33 -20 90 -20q56 0 56 32t-54 32q-38 0 -79 -11l42 86q-54 7 -87 40.5t-33 97.5v274h-67v121h67v167h160v-167h107v-121h-107v-219q0 -49 47 -49q28 0 70 19l30 -127q-60 -27 -122 -35l-21 -31q14 3 30 3q39 0 64.5 -18.5t25.5 -55.5q0 -42 -36 -68.5
t-104 -26.5q-59 0 -109 21z" />
    <glyph glyph-name="Tcaron" unicode="&#x164;" horiz-adv-x="622" 
d="M150 878l82 37l85 -63l85 63l82 -37l-109 -107h-115zM609 710v-144h-216v-566h-164v566h-217v144h597z" />
    <glyph glyph-name="tcaron" unicode="&#x165;" horiz-adv-x="401" 
d="M483 730l-95 -158l-102 28l52 130h145zM364 155l30 -127q-88 -38 -161 -38q-65 0 -105.5 34t-40.5 106v274h-67v121h67v167h160v-167h107v-121h-107v-219q0 -49 47 -49q28 0 70 19z" />
    <glyph glyph-name="Tbar" unicode="&#x166;" horiz-adv-x="649" 
d="M622 710v-144h-216v-198h179v-76h-179v-292h-164v292h-178v76h178v198h-217v144h597z" />
    <glyph glyph-name="tbar" unicode="&#x167;" horiz-adv-x="402" 
d="M365 155l30 -127q-88 -38 -161 -38q-65 0 -105.5 34t-40.5 106v117h-67v93h67v64h-67v121h67v167h160v-167h107v-121h-107v-64h107v-93h-107v-62q0 -49 47 -49q28 0 70 19z" />
    <glyph glyph-name="Utilde" unicode="&#x168;" horiz-adv-x="745" 
d="M372 140q54 0 89 31t48.5 75.5t13.5 100.5v363h164v-363q0 -156 -79 -254.5t-236 -98.5q-82 0 -144.5 28.5t-98.5 78.5t-54 112t-18 134v363h164v-363q0 -90 36.5 -148.5t114.5 -58.5zM436 773q-32 0 -72 23t-61 23q-20 0 -31.5 -12.5t-13.5 -21t-2 -14.5h-86
q0 20 11 50.5t42 61t74 30.5q33 0 72 -24t61 -24q21 0 33.5 12.5t15.5 22.5t3 15h86q0 -10 -7.5 -31.5t-21.5 -47t-41.5 -44.5t-61.5 -19z" />
    <glyph glyph-name="utilde" unicode="&#x169;" horiz-adv-x="633" 
d="M214 -10q-80 0 -122 51t-42 148v336h160v-301q0 -99 73 -99q72 0 115 76v324h160v-345q0 -24 9 -34t32 -11v-135q-44 -8 -76 -8q-84 1 -97 67l-3 32q-70 -101 -209 -101zM368 588q-32 0 -72 23t-61 23q-20 0 -31.5 -12.5t-13.5 -21t-2 -14.5h-86q0 20 11 50.5t42 61
t74 30.5q33 0 72 -24t61 -24q21 0 33.5 12.5t15.5 22.5t3 15h86q0 -10 -7.5 -31.5t-21.5 -47t-41.5 -44.5t-61.5 -19z" />
    <glyph glyph-name="Umacron" unicode="&#x16a;" horiz-adv-x="745" 
d="M372 140q54 0 89 31t48.5 75.5t13.5 100.5v363h164v-363q0 -156 -79 -254.5t-236 -98.5q-82 0 -144.5 28.5t-98.5 78.5t-54 112t-18 134v363h164v-363q0 -90 36.5 -148.5t114.5 -58.5zM525 806h-304v97h304v-97z" />
    <glyph glyph-name="umacron" unicode="&#x16b;" horiz-adv-x="633" 
d="M214 -10q-80 0 -122 51t-42 148v336h160v-301q0 -99 73 -99q72 0 115 76v324h160v-345q0 -24 9 -34t32 -11v-135q-44 -8 -76 -8q-84 1 -97 67l-3 32q-70 -101 -209 -101zM457 621h-304v97h304v-97z" />
    <glyph glyph-name="Ubreve" unicode="&#x16c;" horiz-adv-x="745" 
d="M372 140q54 0 89 31t48.5 75.5t13.5 100.5v363h164v-363q0 -156 -79 -254.5t-236 -98.5q-82 0 -144.5 28.5t-98.5 78.5t-54 112t-18 134v363h164v-363q0 -90 36.5 -148.5t114.5 -58.5zM372 838q23 0 40.5 21.5t20.5 55.5h83q0 -65 -40 -106t-104 -41q-63 0 -103.5 41.5
t-40.5 105.5h85q0 -31 17.5 -54t41.5 -23z" />
    <glyph glyph-name="ubreve" unicode="&#x16d;" horiz-adv-x="633" 
d="M214 -10q-80 0 -122 51t-42 148v336h160v-301q0 -99 73 -99q72 0 115 76v324h160v-345q0 -24 9 -34t32 -11v-135q-44 -8 -76 -8q-84 1 -97 67l-3 32q-70 -101 -209 -101zM304 653q23 0 40.5 21.5t20.5 55.5h83q0 -65 -40 -106t-104 -41q-63 0 -103.5 41.5t-40.5 105.5h85
q0 -31 17.5 -54t41.5 -23z" />
    <glyph glyph-name="Uring" unicode="&#x16e;" horiz-adv-x="745" 
d="M265 833q0 40 29 61t78 21t77.5 -21t28.5 -61q0 -39 -28.5 -60t-77.5 -21t-78 21t-29 60zM372 868q-17 0 -28.5 -9.5t-11.5 -24.5t11.5 -25t28.5 -10q16 0 28 10t12 25t-11.5 24.5t-28.5 9.5zM372 140q54 0 89 31t48.5 75.5t13.5 100.5v363h164v-363q0 -156 -79 -254.5
t-236 -98.5q-82 0 -144.5 28.5t-98.5 78.5t-54 112t-18 134v363h164v-363q0 -90 36.5 -148.5t114.5 -58.5z" />
    <glyph glyph-name="uring" unicode="&#x16f;" horiz-adv-x="633" 
d="M197 648q0 40 29 61t78 21t77.5 -21t28.5 -61q0 -39 -28.5 -60t-77.5 -21t-78 21t-29 60zM304 683q-17 0 -28.5 -9.5t-11.5 -24.5t11.5 -25t28.5 -10q16 0 28 10t12 25t-11.5 24.5t-28.5 9.5zM214 -10q-80 0 -122 51t-42 148v336h160v-301q0 -99 73 -99q72 0 115 76v324
h160v-345q0 -24 9 -34t32 -11v-135q-44 -8 -76 -8q-84 1 -97 67l-3 32q-70 -101 -209 -101z" />
    <glyph glyph-name="Uhungarumlaut" unicode="&#x170;" horiz-adv-x="745" 
d="M372 140q54 0 89 31t48.5 75.5t13.5 100.5v363h164v-363q0 -156 -79 -254.5t-236 -98.5q-82 0 -144.5 28.5t-98.5 78.5t-54 112t-18 134v363h164v-363q0 -90 36.5 -148.5t114.5 -58.5zM396 916l-88 -158l-77 28l45 130h120zM570 916l-87 -158l-77 28l44 130h120z" />
    <glyph glyph-name="uhungarumlaut" unicode="&#x171;" horiz-adv-x="633" 
d="M214 -10q-80 0 -122 51t-42 148v336h160v-301q0 -99 73 -99q72 0 115 76v324h160v-345q0 -24 9 -34t32 -11v-135q-44 -8 -76 -8q-84 1 -97 67l-3 32q-70 -101 -209 -101zM329 731l-88 -158l-77 28l45 130h120zM503 731l-87 -158l-77 28l44 130h120z" />
    <glyph glyph-name="Uogonek" unicode="&#x172;" horiz-adv-x="745" 
d="M372 140q54 0 89 31t48.5 75.5t13.5 100.5v363h164v-363q0 -150 -72.5 -246.5t-215.5 -105.5q-73 -45 -73 -84q0 -38 65 -39l-31 -77q-57 8 -87.5 33.5t-30.5 59.5q0 59 80 109q-91 11 -152.5 63t-87 124.5t-25.5 162.5v363h164v-363q0 -90 36.5 -148.5t114.5 -58.5z" />
    <glyph glyph-name="uogonek" unicode="&#x173;" horiz-adv-x="633" 
d="M214 -10q-80 0 -122 51t-42 148v336h160v-301q0 -99 73 -99q72 0 115 76v324h160v-345q0 -24 9 -34t32 -11v-135q-82 -48 -82 -89q0 -38 65 -39l-31 -77q-57 8 -87.5 33.5t-30.5 59.5q0 56 73 105q-68 7 -80 66l-3 32q-70 -101 -209 -101z" />
    <glyph glyph-name="Wcircumflex" unicode="&#x174;" horiz-adv-x="1056" 
d="M442 771l-82 36l110 108h115l109 -108l-82 -36l-85 63zM422 379l-118 330h152l71 -227l73 227h151l-119 -330l72 -191l179 522h178l-283 -710h-138l-112 278l-113 -278h-137l-283 710h177l180 -522z" />
    <glyph glyph-name="wcircumflex" unicode="&#x175;" horiz-adv-x="856" 
d="M343 586l-82 36l110 108h115l109 -108l-82 -36l-85 63zM564 148l142 377h151l-217 -525h-131l-81 216l-80 -216h-131l-217 525h151l142 -377l49 143l-92 234h128l50 -158l51 158h128l-93 -234z" />
    <glyph glyph-name="Ycircumflex" unicode="&#x176;" horiz-adv-x="648" 
d="M-8 710h178l153 -326l156 326h178l-252 -468v-242h-164v244zM238 771l-82 36l110 108h115l109 -108l-82 -36l-85 63z" />
    <glyph glyph-name="ycircumflex" unicode="&#x177;" horiz-adv-x="545" 
d="M52 -216v137q42 -13 73 -13q26 0 42.5 21t27.5 71l-199 525h164l123 -388l105 388h149l-201 -610q-22 -66 -74.5 -105.5t-121.5 -40.5q-48 0 -88 15zM198 586l-82 36l110 108h115l109 -108l-82 -36l-85 63z" />
    <glyph glyph-name="Ydieresis" unicode="&#x178;" horiz-adv-x="648" 
d="M-8 710h178l153 -326l156 326h178l-252 -468v-242h-164v244zM284 779h-132v129h132v-129zM494 779h-132v129h132v-129z" />
    <glyph glyph-name="Zacute" unicode="&#x179;" horiz-adv-x="623" 
d="M463 915l-95 -158l-102 28l52 130h145zM27 0v123l369 443h-355v144h545v-123l-353 -443h357v-144h-563z" />
    <glyph glyph-name="zacute" unicode="&#x17a;" horiz-adv-x="492" 
d="M386 730l-95 -158l-102 28l52 130h145zM23 0v96l268 318h-254v111h422v-96l-267 -318h273v-111h-442z" />
    <glyph glyph-name="Zdotaccent" unicode="&#x17b;" horiz-adv-x="623" 
d="M27 0v123l369 443h-355v144h545v-123l-353 -443h357v-144h-563zM394 778h-144v137h144v-137z" />
    <glyph glyph-name="zdotaccent" unicode="&#x17c;" horiz-adv-x="492" 
d="M23 0v96l268 318h-254v111h422v-96l-267 -318h273v-111h-442zM318 593h-144v137h144v-137z" />
    <glyph glyph-name="Zcaron" unicode="&#x17d;" horiz-adv-x="623" 
d="M155 878l82 37l85 -63l85 63l82 -37l-109 -107h-115zM27 0v123l369 443h-355v144h545v-123l-353 -443h357v-144h-563z" />
    <glyph glyph-name="zcaron" unicode="&#x17e;" horiz-adv-x="492" 
d="M78 693l82 37l85 -63l85 63l82 -37l-109 -107h-115zM23 0v96l268 318h-254v111h422v-96l-267 -318h273v-111h-442z" />
    <glyph glyph-name="florin" unicode="&#x192;" horiz-adv-x="557" 
d="M169 -202q-82 0 -140 50l67 109q20 -21 53 -21q23 0 38 15.5t15 39.5v352h-67v121h67v61q0 98 50 156.5t133 58.5q64 0 137 -31l-29 -120q-37 16 -72 16q-59 0 -59 -74v-67h122v-121h-122v-348q0 -87 -55.5 -142t-137.5 -55z" />
    <glyph glyph-name="Oogonek" unicode="&#x1ea;" horiz-adv-x="734" 
d="M354 -205q-57 8 -87.5 33.5t-30.5 59.5q0 59 80 110q-127 19 -207.5 123.5t-80.5 234.5q0 144 98 251t243 107q146 0 241.5 -109.5t95.5 -251.5q0 -136 -89 -241t-223 -116q-74 -46 -74 -85q0 -38 65 -39zM195 354q0 -87 46.5 -150.5t126.5 -63.5q81 0 126 64.5t45 151.5
t-46.5 149.5t-125.5 62.5q-81 0 -126.5 -63.5t-45.5 -150.5z" />
    <glyph glyph-name="oogonek" unicode="&#x1eb;" horiz-adv-x="611" 
d="M330 -205q-57 8 -87.5 33.5t-30.5 59.5q0 55 70 103q-119 8 -188 85.5t-69 185.5q0 114 76 193.5t205 79.5t205 -79.5t76 -193.5q0 -98 -57 -171.5t-158 -93.5q-76 -46 -76 -86q0 -38 65 -39zM189 262q0 -61 33 -99t84 -38q50 0 83 38.5t33 98.5q0 61 -33 99t-83 38
t-83.5 -38.5t-33.5 -98.5z" />
    <glyph glyph-name="Aringacute" unicode="&#x1fa;" horiz-adv-x="673" 
d="M491 918l-76 -114q28 -20 28 -60q0 -38 -29 -61l262 -683h-174l-55 159h-221l-54 -159h-174l262 683q-30 21 -30 61q0 64 73 79l43 95h145zM419 272l-82 264l-85 -264h167zM337 779q-17 0 -28.5 -9.5t-11.5 -24.5t11.5 -25t28.5 -10q16 0 28 10t12 25t-11.5 24.5
t-28.5 9.5z" />
    <glyph glyph-name="aringacute" unicode="&#x1fb;" horiz-adv-x="590" 
d="M204 -10q-78 0 -130 48t-52 119q0 77 63 126t162 49q69 0 118 -22v24q0 91 -105 91q-77 0 -164 -58l-47 100q104 68 227 68q119 0 184 -56.5t65 -163.5v-135q0 -24 9 -34t32 -11v-135q-40 -8 -77 -8q-84 1 -96 67l-3 24q-73 -93 -186 -93zM251 105q56 0 91 33
q23 18 23 38v50q-48 17 -91 17q-44 0 -72.5 -20.5t-28.5 -51.5q0 -29 22 -47.5t56 -18.5zM417 909l-95 -158l-102 28l52 130h145zM169 648q0 40 29 61t78 21t77.5 -21t28.5 -61q0 -39 -28.5 -60t-77.5 -21t-78 21t-29 60zM276 683q-17 0 -28.5 -9.5t-11.5 -24.5t11.5 -25
t28.5 -10q16 0 28 10t12 25t-11.5 24.5t-28.5 9.5z" />
    <glyph glyph-name="AEacute" unicode="&#x1fc;" horiz-adv-x="977" 
d="M746 915l-95 -158l-102 28l52 130h145zM-18 0l437 710h516v-144h-310v-133h256v-143h-256v-146h319v-144h-482v159h-215l-91 -159h-174zM317 303h133v224z" />
    <glyph glyph-name="aeacute" unicode="&#x1fd;" horiz-adv-x="940" 
d="M600 730l-95 -158l-102 28l52 130h145zM204 -10q-77 0 -129 48t-52 119q0 77 63 126t161 49q63 0 113 -20q0 1 1.5 14t2.5 16q-5 83 -104 83q-78 0 -163 -58l-48 100q106 68 227 68q120 0 184 -64q74 64 181 64q129 0 205 -79t76 -194q0 -23 -4 -49h-391q4 -50 38.5 -79
t81.5 -29q37 0 68.5 17.5t42.5 45.5l136 -38q-32 -64 -98 -102t-154 -38q-149 0 -229 105q-34 -52 -92.5 -78.5t-116.5 -26.5zM251 105q56 0 91 33q23 18 24 37q-2 3 -3 14t-2 24t-1 15q-43 15 -85 15q-44 0 -72.5 -20t-28.5 -52q0 -28 22 -47t55 -19zM524 310h229
q-5 50 -36.5 80t-78.5 30t-78 -30t-36 -80z" />
    <glyph glyph-name="Oslashacute" unicode="&#x1fe;" horiz-adv-x="736" 
d="M531 710h177l-85 -119q84 -104 84 -238q0 -144 -98 -251.5t-242 -107.5q-79 0 -144 34l-20 -28h-176l84 119q-82 104 -82 237q0 144 98 251t243 107q75 0 141 -33zM540 356q0 49 -17 94l-213 -299q28 -11 59 -11q81 0 126 64.5t45 151.5zM196 354q0 -52 16 -94l211 298
q-28 10 -55 10q-81 0 -126.5 -63.5t-45.5 -150.5zM511 915l-95 -158l-102 28l52 130h145z" />
    <glyph glyph-name="oslashacute" unicode="&#x1ff;" horiz-adv-x="609" 
d="M33 -5l65 75q-74 77 -74 192q0 114 76 193.5t205 79.5q83 0 149 -37l27 32h88l-62 -72q79 -77 79 -196q0 -113 -76 -192.5t-205 -79.5q-90 0 -155 40l-30 -35h-87zM445 730l-95 -158l-102 28l52 130h145zM305 125q50 0 83 38.5t33 98.5q0 44 -19 77l-159 -196
q25 -18 62 -18zM188 262q0 -43 16 -74l158 195q-27 16 -57 16q-50 0 -83.5 -38.5t-33.5 -98.5z" />
    <glyph glyph-name="uni0218" unicode="&#x218;" horiz-adv-x="616" 
d="M221 -201v63q38 0 38 27v64h130v-70q0 -52 -42 -68t-126 -16zM566 638l-71 -136q-13 15 -74 41.5t-116 26.5q-87 0 -87 -59q0 -32 30.5 -47.5t109.5 -37.5q5 -1 8 -2q114 -31 168 -77t54 -138q0 -112 -76 -164.5t-191 -52.5q-78 0 -159 23.5t-144 64.5l72 143
q18 -19 91 -51t143 -32q87 0 87 53q0 11 -3.5 20t-13.5 17t-18.5 13.5t-27.5 12t-30.5 10.5t-38 11.5t-39.5 11.5q-102 31 -147 74.5t-45 121.5q0 108 75 169.5t187 61.5q125 0 256 -78z" />
    <glyph glyph-name="uni0219" unicode="&#x219;" horiz-adv-x="517" 
d="M169 -201v63q38 0 38 27v64h130v-70q0 -52 -42 -68t-126 -16zM274 -10q-66 0 -140 18.5t-122 48.5l63 108q107 -62 195 -62q72 0 72 43q0 20 -23 31.5t-88 28.5q-109 28 -150.5 60t-41.5 91q0 79 61 128.5t156 49.5q109 0 225 -62l-63 -101q-94 52 -162 52q-69 0 -69 -44
q0 -21 20 -32t79 -25q118 -30 164 -64.5t46 -98.5q0 -78 -60 -124t-162 -46z" />
    <glyph glyph-name="uni021A" unicode="&#x21a;" horiz-adv-x="622" 
d="M213 -201v63q38 0 38 27v64h130v-70q0 -52 -42 -68t-126 -16zM609 710v-144h-216v-566h-164v566h-217v144h597z" />
    <glyph glyph-name="uni021B" unicode="&#x21b;" horiz-adv-x="401" 
d="M129 -201v63q38 0 38 27v64h130v-70q0 -52 -42 -68t-126 -16zM364 155l30 -127q-88 -38 -161 -38q-65 0 -105.5 34t-40.5 106v274h-67v121h67v167h160v-167h107v-121h-107v-219q0 -49 47 -49q28 0 70 19z" />
    <glyph glyph-name="dotlessj" unicode="&#x237;" 
d="M21 -202q-82 0 -140 50l67 109q20 -21 53 -21q23 0 38 15t15 40v534h160v-522q0 -90 -54.5 -147.5t-138.5 -57.5z" />
    <glyph glyph-name="schwa" unicode="&#x259;" horiz-adv-x="605" 
d="M300 -10q-129 0 -204.5 79t-76.5 193q0 24 4 50h388q-4 50 -37.5 78.5t-79.5 28.5q-36 0 -67.5 -17.5t-42.5 -45.5l-136 39q31 63 97 101.5t155 38.5q128 0 204.5 -78.5t76.5 -190.5q0 -117 -75.5 -196.5t-205.5 -79.5zM303 105q46 0 76.5 29.5t35.5 79.5h-227
q5 -49 37 -79t78 -30z" />
    <glyph glyph-name="apostrophe" unicode="&#x2bc;" horiz-adv-x="380" 
d="M305 730l-96 -158l-102 28l33 80l-8 50h173z" />
    <glyph glyph-name="circumflex" unicode="&#x2c6;" horiz-adv-x="384" 
d="M107 586l-82 36l110 108h115l109 -108l-82 -36l-85 63z" />
    <glyph glyph-name="caron" unicode="&#x2c7;" horiz-adv-x="384" 
d="M25 693l82 37l85 -63l85 63l82 -37l-109 -107h-115z" />
    <glyph glyph-name="breve" unicode="&#x2d8;" horiz-adv-x="347" 
d="M173 653q23 0 40.5 21.5t20.5 55.5h83q0 -65 -40 -106t-104 -41q-63 0 -103.5 41.5t-40.5 105.5h85q0 -31 17.5 -54t41.5 -23z" />
    <glyph glyph-name="dotaccent" unicode="&#x2d9;" horiz-adv-x="244" 
d="M194 593h-144v137h144v-137z" />
    <glyph glyph-name="ring" unicode="&#x2da;" 
d="M27 648q0 40 29 61t78 21t77.5 -21t28.5 -61q0 -39 -28.5 -60t-77.5 -21t-78 21t-29 60zM134 683q-17 0 -28.5 -9.5t-11.5 -24.5t11.5 -25t28.5 -10q16 0 28 10t12 25t-11.5 24.5t-28.5 9.5z" />
    <glyph glyph-name="ogonek" unicode="&#x2db;" horiz-adv-x="309" 
d="M187 -204q-57 8 -87.5 33.5t-30.5 59.5q0 35 32 70t94 64l40 -22q-82 -48 -82 -89q0 -38 65 -39z" />
    <glyph glyph-name="tilde" unicode="&#x2dc;" horiz-adv-x="450" 
d="M292 588q-32 0 -72 23t-61 23q-20 0 -31.5 -12.5t-13.5 -21t-2 -14.5h-86q0 20 11 50.5t42 61t74 30.5q33 0 72 -24t61 -24q21 0 33.5 12.5t15.5 22.5t3 15h86q0 -10 -7.5 -31.5t-21.5 -47t-41.5 -44.5t-61.5 -19z" />
    <glyph glyph-name="hungarumlaut" unicode="&#x2dd;" horiz-adv-x="381" 
d="M194 730l-88 -158l-77 28l45 130h120zM368 730l-87 -158l-77 28l44 130h120z" />
    <glyph glyph-name="uni03BC" unicode="&#x3bc;" horiz-adv-x="640" 
d="M54 -213v738h160v-301q0 -99 77 -99q69 0 112 76v324h160v-345q0 -24 8.5 -33.5t31.5 -11.5v-135q-43 -8 -76 -8q-84 2 -96 67l-4 32q-15 -34 -58.5 -67.5t-87.5 -33.5q-32 0 -51.5 16t-25.5 32l10 -251h-160z" />
    <glyph glyph-name="Ndotaccent" unicode="&#x1e44;" horiz-adv-x="759" 
d="M450 777h-144v137h144v-137zM559 0l-327 406v-406h-164v710h128l331 -417v417h164v-710h-132z" />
    <glyph glyph-name="ndotaccent" unicode="&#x1e45;" horiz-adv-x="611" 
d="M396 593h-144v137h144v-137zM561 336v-336h-160v295q0 99 -71 99q-34 0 -68 -26.5t-48 -66.5v-301h-160v525h144v-88q29 47 82.5 72.5t121.5 25.5q159 0 159 -199z" />
    <glyph glyph-name="Wgrave" unicode="&#x1e80;" horiz-adv-x="1056" 
d="M422 379l-118 330h152l71 -227l73 227h151l-119 -330l72 -191l179 522h178l-283 -710h-138l-112 278l-113 -278h-137l-283 710h177l180 -522zM482 758l-96 158h145l52 -130z" />
    <glyph glyph-name="wgrave" unicode="&#x1e81;" horiz-adv-x="856" 
d="M564 148l142 377h151l-217 -525h-131l-81 216l-80 -216h-131l-217 525h151l142 -377l49 143l-92 234h128l50 -158l51 158h128l-93 -234zM383 573l-96 158h145l52 -130z" />
    <glyph glyph-name="Wacute" unicode="&#x1e82;" horiz-adv-x="1056" 
d="M668 915l-95 -158l-102 28l52 130h145zM422 379l-118 330h152l71 -227l73 227h151l-119 -330l72 -191l179 522h178l-283 -710h-138l-112 278l-113 -278h-137l-283 710h177l180 -522z" />
    <glyph glyph-name="wacute" unicode="&#x1e83;" horiz-adv-x="856" 
d="M569 730l-95 -158l-102 28l52 130h145zM564 148l142 377h151l-217 -525h-131l-81 216l-80 -216h-131l-217 525h151l142 -377l49 143l-92 234h128l50 -158l51 158h128l-93 -234z" />
    <glyph glyph-name="Wdieresis" unicode="&#x1e84;" horiz-adv-x="1056" 
d="M488 779h-132v129h132v-129zM698 779h-132v129h132v-129zM422 379l-118 330h152l71 -227l73 227h151l-119 -330l72 -191l179 522h178l-283 -710h-138l-112 278l-113 -278h-137l-283 710h177l180 -522z" />
    <glyph glyph-name="wdieresis" unicode="&#x1e85;" horiz-adv-x="856" 
d="M389 594h-132v129h132v-129zM599 594h-132v129h132v-129zM564 148l142 377h151l-217 -525h-131l-81 216l-80 -216h-131l-217 525h151l142 -377l49 143l-92 234h128l50 -158l51 158h128l-93 -234z" />
    <glyph glyph-name="Etilde" unicode="&#x1ebc;" horiz-adv-x="601" 
d="M232 144h335v-144h-499v710h490v-144h-326v-138h280v-133h-280v-151zM385 773q-33 0 -73 23t-60 23t-31.5 -12.5t-13.5 -21t-2 -14.5h-86q0 20 11 50.5t42 61t74 30.5q34 0 73 -24t60 -24t33.5 12.5t15.5 22.5t3 15h86q0 -10 -7.5 -31.5t-21.5 -47t-41.5 -44.5t-61.5 -19
z" />
    <glyph glyph-name="etilde" unicode="&#x1ebd;" horiz-adv-x="604" 
d="M306 -10q-128 0 -205 78t-77 189q0 118 76 198t206 80q129 0 204.5 -79t75.5 -192q0 -25 -4 -51h-388q4 -50 37.5 -79t79.5 -29q36 0 68 17.5t43 45.5l136 -38q-32 -64 -98 -102t-154 -38zM191 312h226q-4 49 -35.5 78.5t-77.5 29.5q-47 0 -78 -29.5t-35 -78.5zM368 588
q-32 0 -72 23t-61 23q-20 0 -31.5 -12.5t-13.5 -21t-2 -14.5h-86q0 20 11 50.5t42 61t74 30.5q33 0 72 -24t61 -24q21 0 33.5 12.5t15.5 22.5t3 15h86q0 -10 -7.5 -31.5t-21.5 -47t-41.5 -44.5t-61.5 -19z" />
    <glyph glyph-name="Ygrave" unicode="&#x1ef2;" horiz-adv-x="648" 
d="M-8 710h178l153 -326l156 326h178l-252 -468v-242h-164v244zM278 758l-96 158h145l52 -130z" />
    <glyph glyph-name="ygrave" unicode="&#x1ef3;" horiz-adv-x="545" 
d="M52 -216v137q42 -13 73 -13q26 0 42.5 21t27.5 71l-199 525h164l123 -388l105 388h149l-201 -610q-22 -66 -74.5 -105.5t-121.5 -40.5q-48 0 -88 15zM238 573l-96 158h145l52 -130z" />
    <glyph glyph-name="Ytilde" unicode="&#x1ef8;" horiz-adv-x="648" 
d="M-8 710h178l153 -326l156 326h178l-252 -468v-242h-164v244zM386 773q-32 0 -72 23t-61 23q-20 0 -31.5 -12.5t-13.5 -21t-2 -14.5h-86q0 20 11 50.5t42 61t74 30.5q33 0 72 -24t61 -24q21 0 33.5 12.5t15.5 22.5t3 15h86q0 -10 -7.5 -31.5t-21.5 -47t-41.5 -44.5
t-61.5 -19z" />
    <glyph glyph-name="ytilde" unicode="&#x1ef9;" horiz-adv-x="545" 
d="M52 -216v137q42 -13 73 -13q26 0 42.5 21t27.5 71l-199 525h164l123 -388l105 388h149l-201 -610q-22 -66 -74.5 -105.5t-121.5 -40.5q-48 0 -88 15zM346 588q-32 0 -72 23t-61 23q-20 0 -31.5 -12.5t-13.5 -21t-2 -14.5h-86q0 20 11 50.5t42 61t74 30.5q33 0 72 -24
t61 -24q21 0 33.5 12.5t15.5 22.5t3 15h86q0 -10 -7.5 -31.5t-21.5 -47t-41.5 -44.5t-61.5 -19z" />
    <glyph glyph-name="endash" unicode="&#x2013;" horiz-adv-x="615" 
d="M561 203h-507v144h507v-144z" />
    <glyph glyph-name="emdash" unicode="&#x2014;" horiz-adv-x="937" 
d="M883 203h-829v144h829v-144z" />
    <glyph glyph-name="quoteleft" unicode="&#x2018;" horiz-adv-x="260" 
d="M210 589v-113q-29 0 -56.5 5.5t-53.5 18t-42 36.5t-16 57v137h130v-106q1 -14 9.5 -22.5t15.5 -10.5t13 -2z" />
    <glyph glyph-name="quoteright" unicode="&#x2019;" horiz-adv-x="263" 
d="M41 617v113q29 0 56.5 -5.5t53.5 -18t42 -36.5t16 -57v-137h-130v106q-1 14 -9.5 22.5t-15.5 10.5t-13 2z" />
    <glyph glyph-name="quotesinglbase" unicode="&#x201a;" horiz-adv-x="249" 
d="M23 -132v113q7 0 14 2t15 10.5t9 22.5v147h130v-177q0 -33 -16 -57.5t-42 -37t-53.5 -18t-56.5 -5.5z" />
    <glyph glyph-name="quotedblleft" unicode="&#x201c;" horiz-adv-x="479" 
d="M210 589v-113q-29 0 -56.5 5.5t-53.5 18t-42 36.5t-16 57v137h130v-106q1 -14 9.5 -22.5t15.5 -10.5t13 -2zM429 589v-113q-29 0 -56.5 5.5t-53.5 18t-42 36.5t-16 57v137h130v-106q1 -14 9.5 -22.5t15.5 -10.5t13 -2z" />
    <glyph glyph-name="quotedblright" unicode="&#x201d;" horiz-adv-x="482" 
d="M41 617v113q29 0 56.5 -5.5t53.5 -18t42 -36.5t16 -57v-137h-130v106q-1 14 -9.5 22.5t-15.5 10.5t-13 2zM260 617v113q29 0 56.5 -5.5t53.5 -18t42 -36.5t16 -57v-137h-130v106q-1 14 -9.5 22.5t-15.5 10.5t-13 2z" />
    <glyph glyph-name="quotedblbase" unicode="&#x201e;" horiz-adv-x="456" 
d="M23 -132v113q7 0 14 2t15 10.5t9 22.5v147h130v-177q0 -33 -16 -57.5t-42 -37t-53.5 -18t-56.5 -5.5zM231 -132v113q7 0 14 2t15 10.5t9 22.5v147h130v-177q0 -33 -16 -57.5t-42 -37t-53.5 -18t-56.5 -5.5z" />
    <glyph glyph-name="dagger" unicode="&#x2020;" horiz-adv-x="486" 
d="M319 -130h-152v329h-132v144h132v432h152v-432h131v-144h-131v-329z" />
    <glyph glyph-name="daggerdbl" unicode="&#x2021;" horiz-adv-x="497" 
d="M325 -130h-152v209h-132v144h132v112h-132v144h132v296h152v-296h131v-144h-131v-112h131v-144h-131v-209z" />
    <glyph glyph-name="bullet" unicode="&#x2022;" horiz-adv-x="366" 
d="M293 351q0 -46 -32 -78t-78 -32q-45 0 -77.5 32t-32.5 78q0 45 32.5 77.5t77.5 32.5q46 0 78 -32.5t32 -77.5z" />
    <glyph glyph-name="ellipsis" unicode="&#x2026;" horiz-adv-x="657" 
d="M184 0h-130v163h130v-163zM394 0h-131v163h131v-163zM603 0h-130v163h130v-163z" />
    <glyph glyph-name="perthousand" unicode="&#x2030;" horiz-adv-x="1212" 
d="M210 411q-71 0 -121 45t-50 110q0 64 50 109t121 45q72 0 121.5 -45t49.5 -109q0 -65 -49.5 -110t-121.5 -45zM210 489q25 0 43 23t18 54t-18 53.5t-43 22.5t-42.5 -22.5t-17.5 -53.5t18 -54t42 -23zM616 -10q-71 0 -121 45t-50 109q0 65 50 110t121 45q72 0 121.5 -45
t49.5 -110q0 -64 -49.5 -109t-121.5 -45zM616 68q25 0 43 22.5t18 53.5t-18 54t-43 23t-42.5 -22.5t-17.5 -54.5q0 -31 17.5 -53.5t42.5 -22.5zM1009 -10q-72 0 -121.5 45t-49.5 109q0 65 49.5 110t121.5 45t121.5 -45t49.5 -110q0 -64 -49.5 -109t-121.5 -45zM1009 68
q25 0 42.5 22.5t17.5 53.5t-18 54t-42 23q-25 0 -42.5 -22.5t-17.5 -54.5q0 -31 17.5 -53.5t42.5 -22.5zM179 -9l-71 65l282 324l256 339l72 -64l-273 -316z" />
    <glyph glyph-name="guilsinglleft" unicode="&#x2039;" horiz-adv-x="358" 
d="M34 217v76l269 193v-129l-143 -98l143 -91v-129z" />
    <glyph glyph-name="guilsinglright" unicode="&#x203a;" horiz-adv-x="358" 
d="M324 293v-76l-270 -178v129l144 91l-144 98v129z" />
    <glyph glyph-name="fraction" unicode="&#x2044;" horiz-adv-x="219" 
d="M-124 -9l-71 65l282 324l256 339l72 -64l-273 -316z" />
    <glyph glyph-name="zerosuperior" unicode="&#x2070;" horiz-adv-x="499" 
d="M250 294q-69 0 -121 35t-75.5 83.5t-23.5 99.5q0 84 61.5 151t158.5 67q68 0 120 -35.5t76 -84t24 -98.5q0 -84 -61.5 -151t-158.5 -67zM125 512q0 -48 33 -86.5t92 -38.5q60 0 92 39.5t32 85.5q0 48 -33 86.5t-91 38.5q-60 0 -92.5 -39.5t-32.5 -85.5z" />
    <glyph glyph-name="foursuperior" unicode="&#x2074;" horiz-adv-x="420" 
d="M331 301h-93v88h-218v91l247 251h64v-251h62v-91h-62v-88zM242 618l-134 -138h134v138z" />
    <glyph glyph-name="fivesuperior" unicode="&#x2075;" horiz-adv-x="403" 
d="M210 580q72 0 120 -39t48 -99q0 -65 -53.5 -106.5t-135.5 -41.5q-54 0 -98.5 19t-67.5 52l54 63q44 -44 117 -44q39 0 64 15.5t25 46.5q0 32 -24.5 48.5t-55.5 16.5q-25 0 -50 -12.5t-36 -31.5h-81q7 39 29.5 131t29.5 133h249v-93h-182l-21 -71q28 13 69 13z" />
    <glyph glyph-name="sixsuperior" unicode="&#x2076;" horiz-adv-x="433" 
d="M405 440q0 -63 -53.5 -106.5t-133.5 -43.5q-86 0 -136 54.5t-50 152.5q0 110 53 171.5t146 61.5q100 0 154 -62l-53 -65q-35 38 -105 38q-49 0 -78.5 -23.5t-30.5 -65.5q31 31 105 31q80 0 131 -41t51 -102zM220 376q40 0 68.5 19t28.5 45t-28.5 44t-68.5 18
q-41 0 -69.5 -18t-28.5 -44q0 -25 29.5 -44.5t68.5 -19.5z" />
    <glyph glyph-name="sevensuperior" unicode="&#x2077;" horiz-adv-x="399" 
d="M45 301l213 337h-235v93h381l-253 -430h-106z" />
    <glyph glyph-name="eightsuperior" unicode="&#x2078;" horiz-adv-x="430" 
d="M399 428q0 -58 -54.5 -96t-130.5 -38q-77 0 -130.5 39.5t-53.5 96.5q0 61 82 100q-66 26 -66 81q0 50 52.5 84.5t115.5 34.5q64 0 116.5 -34t52.5 -84q0 -55 -66 -82q82 -38 82 -102zM305 438q0 22 -27.5 36t-63.5 14q-37 0 -63.5 -14t-26.5 -36t28 -36.5t63 -14.5
q36 0 63 14.5t27 36.5zM139 602q0 -17 23 -27.5t52 -10.5t52.5 10.5t23.5 27.5t-22.5 27.5t-53.5 10.5t-53 -10.5t-22 -27.5z" />
    <glyph glyph-name="ninesuperior" unicode="&#x2079;" horiz-adv-x="433" 
d="M28 579q0 64 53.5 107.5t133.5 43.5q86 0 136 -54.5t50 -152.5q0 -110 -52.5 -171.5t-145.5 -61.5q-100 0 -155 63l53 64q36 -39 105 -39q49 0 78.5 24t30.5 66q-31 -31 -106 -31q-79 0 -130 40.5t-51 101.5zM213 644q-39 0 -67.5 -19.5t-28.5 -45.5q0 -25 28.5 -43
t68.5 -18t68.5 18t28.5 43q0 26 -29 45.5t-69 19.5z" />
    <glyph glyph-name="zeroinferior" unicode="&#x2080;" horiz-adv-x="499" 
d="M250 -6q-69 0 -121 35t-75.5 83.5t-23.5 99.5q0 84 61.5 151t158.5 67q68 0 120 -35.5t76 -84t24 -98.5q0 -84 -61.5 -151t-158.5 -67zM125 212q0 -48 33 -86.5t92 -38.5q60 0 92 39.5t32 85.5q0 48 -33 86.5t-91 38.5q-60 0 -92.5 -39.5t-32.5 -85.5z" />
    <glyph glyph-name="oneinferior" unicode="&#x2081;" horiz-adv-x="350" 
d="M241 91h91v-91h-285v91h100v243q-14 -16 -51.5 -34t-64.5 -18v93q22 0 51 14.5t46.5 28t18.5 16.5h94v-343z" />
    <glyph glyph-name="twoinferior" unicode="&#x2082;" horiz-adv-x="434" 
d="M397 0h-369q0 84 28.5 128t104.5 76q8 3 26.5 10.5t27.5 11t23.5 10.5t22 12.5t15.5 13.5t11.5 16.5t3.5 18.5q0 47 -80 47q-72 0 -121 -47l-59 69q21 27 73 48t122 21q82 0 126 -36t44 -103q0 -100 -128 -137q-86 -25 -86 -68h215v-91z" />
    <glyph glyph-name="threeinferior" unicode="&#x2083;" horiz-adv-x="415" 
d="M193 -6q-134 0 -167 76l50 70q3 -8 15 -18.5t40 -22t61 -11.5q42 0 69 11.5t27 32.5q0 49 -148 49h-25v85h24q134 0 134 46q0 19 -23.5 28t-52.5 9q-68 0 -112 -47l-59 76q23 27 70 42.5t100 15.5q76 0 126.5 -34t50.5 -84q0 -35 -26 -58t-71 -31q48 -7 77.5 -38.5
t29.5 -72.5q0 -62 -55.5 -93t-134.5 -31z" />
    <glyph glyph-name="fourinferior" unicode="&#x2084;" horiz-adv-x="420" 
d="M331 1h-93v88h-218v91l247 251h64v-251h62v-91h-62v-88zM242 318l-134 -138h134v138z" />
    <glyph glyph-name="fiveinferior" unicode="&#x2085;" horiz-adv-x="403" 
d="M209 280q73 0 120.5 -39t47.5 -100q0 -64 -53.5 -105.5t-135.5 -41.5q-54 0 -98.5 19t-67.5 51l54 64q44 -44 117 -44q39 0 64 15.5t25 46.5q0 32 -24.5 48.5t-55.5 16.5q-25 0 -50 -12.5t-36 -31.5h-81q7 39 29.5 131t29.5 133h249v-93h-182l-21 -71q28 13 69 13z" />
    <glyph glyph-name="sixinferior" unicode="&#x2086;" horiz-adv-x="433" 
d="M405 144q0 -63 -53.5 -106.5t-133.5 -43.5q-86 0 -136 54.5t-50 152.5q0 110 53 171.5t146 61.5q98 0 154 -62l-53 -65q-35 38 -105 38q-49 0 -78.5 -23.5t-30.5 -65.5q31 31 105 31q80 0 131 -41t51 -102zM220 80q40 0 68.5 19t28.5 45t-28.5 44t-68.5 18
q-41 0 -69.5 -18t-28.5 -44t29.5 -45t68.5 -19z" />
    <glyph glyph-name="seveninferior" unicode="&#x2087;" horiz-adv-x="400" 
d="M46 1l213 337h-235v93h380l-253 -430h-105z" />
    <glyph glyph-name="eightinferior" unicode="&#x2088;" horiz-adv-x="430" 
d="M399 128q0 -58 -54.5 -96t-130.5 -38q-77 0 -130.5 39.5t-53.5 96.5q0 61 82 100q-66 26 -66 81q0 50 52.5 84.5t115.5 34.5q64 0 116.5 -34t52.5 -84q0 -55 -66 -82q82 -38 82 -102zM305 138q0 22 -27.5 36t-63.5 14q-37 0 -63.5 -14t-26.5 -36t28 -36.5t63 -14.5
q36 0 63 14.5t27 36.5zM139 302q0 -17 23 -27.5t52 -10.5t52.5 10.5t23.5 27.5t-22.5 27.5t-53.5 10.5t-53 -10.5t-22 -27.5z" />
    <glyph glyph-name="nineinferior" unicode="&#x2089;" horiz-adv-x="433" 
d="M28 283q0 63 53.5 107t133.5 44q86 0 136 -55t50 -153q0 -109 -52.5 -170.5t-145.5 -61.5q-99 0 -155 62l53 65q36 -39 105 -39q49 0 78.5 24t30.5 66q-30 -32 -106 -32q-79 0 -130 41t-51 102zM213 348q-39 0 -67.5 -19.5t-28.5 -45.5q0 -25 28.5 -43t68.5 -18t68.5 18
t28.5 43q0 26 -29 45.5t-69 19.5z" />
    <glyph glyph-name="Euro" unicode="&#x20ac;" horiz-adv-x="771" 
d="M76 445h44q26 114 114.5 191.5t217.5 77.5q92 0 163 -42t106 -113l-126 -88q-20 52 -60.5 74.5t-86.5 22.5q-58 0 -98 -34t-59 -89h227l-35 -86h-206q0 -27 3 -48h208l-35 -86h-142q50 -85 139 -85q45 0 86 24t59 74l135 -79q-30 -75 -112.5 -120t-171.5 -45
q-106 0 -188.5 65t-121.5 166h-102l35 86h44q-3 24 -3 48h-69z" />
    <glyph glyph-name="trademark" unicode="&#x2122;" horiz-adv-x="866" 
d="M352 712v-102h-95v-203h-102v203h-95v102h292zM598 565l48 145h153v-303h-102v174l-57 -132h-83l-57 132v-174h-102v303h153z" />
    <glyph glyph-name="onethird" unicode="&#x2153;" horiz-adv-x="996" 
d="M769 -6q-134 0 -167 76l50 70q3 -8 15 -18.5t40 -22t61 -11.5q42 0 69 11.5t27 32.5q0 49 -148 49h-25v85h24q134 0 134 46q0 19 -23.5 28t-52.5 9q-68 0 -112 -47l-59 76q23 27 70 42.5t100 15.5q76 0 126.5 -34t50.5 -84q0 -35 -26 -58t-71 -31q48 -7 77.5 -38.5
t29.5 -72.5q0 -62 -55.5 -93t-134.5 -31zM231 389h69v-92h-241v92h77v243q-12 -16 -41.5 -34t-51.5 -18v93q18 0 41.5 14.5t37 27.5t14.5 16h95v-342zM217 -9l-71 65l282 324l256 339l72 -64l-273 -316z" />
    <glyph glyph-name="twothirds" unicode="&#x2154;" horiz-adv-x="1012" 
d="M785 -6q-134 0 -167 76l50 70q3 -8 15 -18.5t40 -22t61 -11.5q42 0 69 11.5t27 32.5q0 49 -148 49h-25v85h24q134 0 134 46q0 19 -23.5 28t-52.5 9q-68 0 -112 -47l-59 76q23 27 70 42.5t100 15.5q76 0 126.5 -34t50.5 -84q0 -35 -26 -58t-71 -31q48 -7 77.5 -38.5
t29.5 -72.5q0 -62 -55.5 -93t-134.5 -31zM370 295h-328q0 84 26 128t97 76q8 4 24.5 11t25 10.5t21.5 10.5t20 12.5t15 13.5t11 16.5t3 18.5q0 47 -73 47q-67 0 -113 -46l-55 68q20 27 68 48t112 21q77 0 118.5 -36t41.5 -103q0 -99 -120 -137q-80 -25 -80 -68h186v-91z
M272 -9l-71 65l282 324l256 339l72 -64l-273 -316z" />
    <glyph glyph-name="oneeighth" unicode="&#x215b;" horiz-adv-x="991" 
d="M955 128q0 -58 -54.5 -96t-130.5 -38q-77 0 -130.5 39.5t-53.5 96.5q0 61 82 100q-66 26 -66 81q0 50 52.5 84.5t115.5 34.5q64 0 116.5 -34t52.5 -84q0 -55 -66 -82q82 -38 82 -102zM861 138q0 22 -27.5 36t-63.5 14q-37 0 -63.5 -14t-26.5 -36t28 -36.5t63 -14.5
q36 0 63 14.5t27 36.5zM695 302q0 -17 23 -27.5t52 -10.5t52.5 10.5t23.5 27.5t-22.5 27.5t-53.5 10.5t-53 -10.5t-22 -27.5zM231 389h69v-92h-241v92h77v243q-12 -16 -41.5 -34t-51.5 -18v93q18 0 41.5 14.5t37 27.5t14.5 16h95v-342zM229 -9l-71 65l282 324l256 339
l72 -64l-273 -316z" />
    <glyph glyph-name="threeeighths" unicode="&#x215c;" horiz-adv-x="1005" 
d="M207 289q-134 0 -167 76l50 70q3 -8 15 -18.5t40 -22t61 -11.5q42 0 69 11.5t27 32.5q0 49 -148 49h-25v85h24q134 0 134 47q0 18 -23.5 27.5t-52.5 9.5q-68 0 -112 -47l-59 75q23 27 70 42.5t100 15.5q76 0 126.5 -34t50.5 -84q0 -35 -26 -58t-71 -31q49 -7 78 -38
t29 -73q0 -61 -55.5 -92.5t-134.5 -31.5zM970 128q0 -58 -54.5 -96t-130.5 -38q-77 0 -130.5 39.5t-53.5 96.5q0 61 82 100q-66 26 -66 81q0 50 52.5 84.5t115.5 34.5q64 0 116.5 -34t52.5 -84q0 -55 -66 -82q82 -38 82 -102zM876 138q0 22 -27.5 36t-63.5 14
q-37 0 -63.5 -14t-26.5 -36t28 -36.5t63 -14.5q36 0 63 14.5t27 36.5zM710 302q0 -17 23 -27.5t52 -10.5t52.5 10.5t23.5 27.5t-22.5 27.5t-53.5 10.5t-53 -10.5t-22 -27.5zM269 -9l-71 65l282 324l256 339l72 -64l-273 -316z" />
    <glyph glyph-name="fiveeighths" unicode="&#x215d;" horiz-adv-x="1023" 
d="M987 128q0 -58 -54.5 -96t-130.5 -38q-77 0 -130.5 39.5t-53.5 96.5q0 61 82 100q-66 26 -66 81q0 50 52.5 84.5t115.5 34.5q64 0 116.5 -34t52.5 -84q0 -55 -66 -82q82 -38 82 -102zM893 138q0 22 -27.5 36t-63.5 14q-37 0 -63.5 -14t-26.5 -36t28 -36.5t63 -14.5
q36 0 63 14.5t27 36.5zM727 302q0 -17 23 -27.5t52 -10.5t52.5 10.5t23.5 27.5t-22.5 27.5t-53.5 10.5t-53 -10.5t-22 -27.5zM221 580q72 0 120 -39t48 -99q0 -65 -53.5 -106.5t-135.5 -41.5q-54 0 -98.5 19t-67.5 52l54 63q44 -44 117 -44q39 0 64 15.5t25 46.5
q0 32 -24.5 48.5t-55.5 16.5q-25 0 -50 -12.5t-36 -31.5h-81q7 39 29.5 131t29.5 133h249v-93h-182l-21 -71q28 13 69 13zM272 -9l-71 65l282 324l256 339l72 -64l-273 -316z" />
    <glyph glyph-name="seveneighths" unicode="&#x215e;" horiz-adv-x="960" 
d="M925 128q0 -58 -54.5 -96t-130.5 -38q-77 0 -130.5 39.5t-53.5 96.5q0 61 82 100q-66 26 -66 81q0 50 52.5 84.5t115.5 34.5q64 0 116.5 -34t52.5 -84q0 -55 -66 -82q82 -38 82 -102zM831 138q0 22 -27.5 36t-63.5 14q-37 0 -63.5 -14t-26.5 -36t28 -36.5t63 -14.5
q36 0 63 14.5t27 36.5zM665 302q0 -17 23 -27.5t52 -10.5t52.5 10.5t23.5 27.5t-22.5 27.5t-53.5 10.5t-53 -10.5t-22 -27.5zM176 -9l-71 65l282 324l256 339l72 -64l-273 -316zM63 301l213 337h-235v93h381l-253 -430h-106z" />
    <glyph glyph-name="minus" unicode="&#x2212;" horiz-adv-x="521" 
d="M463 277h-404v127h404v-127z" />
    <glyph glyph-name="uni2215" unicode="&#x2215;" horiz-adv-x="630" 
d="M73 -9l-91 76l575 652l90 -75z" />
    <glyph glyph-name="uni2219" unicode="&#x2219;" horiz-adv-x="238" 
d="M184 240h-130v166h130v-166z" />
    <glyph glyph-name="commaaccent" unicode="&#xf6c3;" horiz-adv-x="220" 
d="M28 -201v63q38 0 38 27v64h130v-70q0 -52 -42 -68t-126 -16z" />
    <glyph glyph-name="s_t" unicode="&#xfb06;" horiz-adv-x="886" 
d="M849 155l30 -127q-88 -38 -161 -38q-65 0 -105.5 34t-40.5 106v274h-67v121h67q-1 81 -14.5 110.5t-56.5 29.5t-65.5 -23t-22.5 -59q0 -59 43 -108l-60 -101q-84 50 -148 50q-69 0 -69 -45q0 -25 22 -35.5t76 -21.5q109 -22 154.5 -57t45.5 -101q0 -83 -58 -128.5
t-154 -45.5q-63 0 -133 19t-116 47l59 109q102 -62 186 -62q70 0 70 43q0 6 -1.5 11t-4.5 9t-6.5 7t-10.5 6.5t-11.5 5.5t-14.5 4.5t-16.5 4.5t-19.5 5t-21 5q-103 26 -145 57.5t-42 93.5q0 82 59 131t140 49q80 0 132 -31q-22 39 -22 83q0 66 48 106.5t146 40.5
q52 0 87 -9.5t55.5 -25t31.5 -44t14 -57t3 -73.5h107v-121h-107v-219q0 -49 46 -49q29 0 71 19z" />
    <glyph glyph-name="A.sc" horiz-adv-x="596" 
d="M151 0h-154l243 563h117l241 -563h-152l-50 118h-197zM364 243l-66 146l-68 -146h134z" />
    <glyph glyph-name="B.sc" horiz-adv-x="603" 
d="M573 144q0 -71 -59 -107.5t-151 -36.5h-302v563h345q62 0 101 -44t39 -101q0 -41 -23 -76.5t-65 -52.5q115 -31 115 -145zM427 174q0 23 -16.5 38.5t-41.5 15.5h-164v-107h158q27 0 45.5 15t18.5 38zM349 440h-144v-99h139q60 0 60 50q0 24 -15.5 36.5t-39.5 12.5z" />
    <glyph glyph-name="C.sc" horiz-adv-x="595" 
d="M28 286q0 111 83 195.5t219 84.5q83 0 145.5 -33t92.5 -90l-110 -78q-33 73 -131 73q-73 0 -113 -47t-40 -109q0 -65 43 -112t112 -47q40 0 76.5 18t52.5 55l118 -70q-26 -60 -99 -95.5t-152 -35.5q-127 0 -212 89t-85 202z" />
    <glyph glyph-name="D.sc" horiz-adv-x="639" 
d="M296 0h-235v563h235q149 0 231 -79t82 -201q0 -128 -85.5 -205.5t-227.5 -77.5zM463 283q0 70 -44.5 112.5t-122.5 42.5h-91v-313h91q78 0 122.5 44t44.5 114z" />
    <glyph glyph-name="E.sc" horiz-adv-x="539" 
d="M205 125h298v-125h-442v563h434v-125h-290v-93h250v-117h-250v-103z" />
    <glyph glyph-name="F.sc" horiz-adv-x="506" 
d="M205 0h-144v563h427v-125h-283v-106h234v-117h-234v-215z" />
    <glyph glyph-name="G.alt" horiz-adv-x="717" 
d="M381 -5q-152 0 -252.5 109.5t-100.5 255.5q0 143 96.5 249t251.5 106q90 0 160.5 -38.5t110.5 -108.5l-130 -102q-53 103 -151 103q-80 0 -126 -64t-46 -150q0 -83 44.5 -148.5t126.5 -65.5q54 0 96.5 30t57.5 71h-135v144h313l-1 -38v-39q-3 -132 -90.5 -223t-224.5 -91
z" />
    <glyph glyph-name="G.sc" horiz-adv-x="623" 
d="M464 0v50q-64 -54 -150 -54q-116 0 -201 86.5t-85 203.5q0 118 86 199.5t212 81.5q81 0 143 -33t93 -90l-108 -81q-19 35 -55.5 55.5t-78.5 20.5q-64 0 -105 -45t-41 -113q0 -69 43 -113t109 -44q76 0 138 65v5h-120v103h240v-297h-120z" />
    <glyph glyph-name="H.sc" horiz-adv-x="663" 
d="M458 563h144v-563h-144v225h-253v-225h-144v563h144v-212h253v212z" />
    <glyph glyph-name="I.sc" horiz-adv-x="266" 
d="M205 0h-144v563h144v-563z" />
    <glyph glyph-name="J.sc" horiz-adv-x="446" 
d="M10 26l32 117q48 -24 105 -24q63 0 81.5 34t18.5 124v286h143v-286q0 -58 -4.5 -96.5t-19 -77.5t-40.5 -61.5t-70.5 -36.5t-108.5 -14q-79 0 -137 35z" />
    <glyph glyph-name="K.sc" horiz-adv-x="607" 
d="M205 0h-144v563h144v-241l245 241h149l-236 -251l251 -312h-151l-185 231l-73 -63v-168z" />
    <glyph glyph-name="L.sc" horiz-adv-x="487" 
d="M473 0h-412v563h144v-438h268v-125z" />
    <glyph glyph-name="caron.alt" horiz-adv-x="269" 
d="M243 730l-95 -158l-102 28l52 130h145z" />
    <glyph glyph-name="M.sc" horiz-adv-x="763" 
d="M702 0h-144v314l-138 -224h-77l-138 224v-314h-144v563h157l164 -278l165 278h155v-563z" />
    <glyph glyph-name="N.sc" horiz-adv-x="674" 
d="M497 0l-292 297v-297h-144v563h113l295 -306v306h143v-563h-115z" />
    <glyph glyph-name="O.sc" horiz-adv-x="655" 
d="M327 -5q-130 0 -214.5 86.5t-84.5 200.5t86.5 199t214.5 85q130 0 214 -87t84 -200q0 -114 -86 -199t-214 -85zM174 281q0 -65 41.5 -111.5t112.5 -46.5q72 0 112.5 47.5t40.5 111.5t-42 110t-112 46q-72 0 -112.5 -47t-40.5 -110z" />
    <glyph glyph-name="P.sc" horiz-adv-x="553" 
d="M205 0h-144v563h269q86 0 145.5 -59.5t59.5 -133.5q0 -77 -56.5 -135.5t-144.5 -58.5h-129v-176zM205 438v-136h120q28 0 46 17t18 51t-20 51t-48 17h-116z" />
    <glyph glyph-name="Q.sc" horiz-adv-x="657" 
d="M513 0l-34 35q-69 -39 -152 -39q-130 0 -214.5 86.5t-84.5 199.5q0 115 86.5 200t214.5 85q130 0 214 -87.5t84 -200.5q0 -103 -71 -183l93 -96h-136zM328 124q30 0 56 9l-94 98h136l33 -34q22 39 22 85q0 64 -42 110.5t-112 46.5q-72 0 -112.5 -47.5t-40.5 -110.5
q0 -65 41 -111t113 -46z" />
    <glyph glyph-name="R.sc" horiz-adv-x="605" 
d="M205 0h-144v563h283q87 0 146 -59.5t59 -133.5q0 -50 -27.5 -93.5t-75.5 -68.5l145 -208h-163l-126 176h-97v-176zM205 438v-136h135q27 0 45 18.5t18 49.5q0 30 -20.5 49t-47.5 19h-130z" />
    <glyph glyph-name="S.sc" horiz-adv-x="538" 
d="M490 506l-62 -119q-16 15 -64.5 34t-96.5 19q-72 0 -72 -36q0 -29 100 -56q16 -5 25 -7q98 -26 144 -62.5t46 -109.5q0 -63 -34 -104t-83.5 -56.5t-111.5 -15.5q-142 0 -260 68l63 125q18 -19 77.5 -41.5t121.5 -22.5q71 0 71 34q0 8 -3 14t-11.5 11.5t-16 9t-22.5 8.5
t-26 8t-32 8t-34 9q-86 24 -124.5 60.5t-38.5 100.5q0 86 65 134.5t160 48.5q106 0 219 -62z" />
    <glyph glyph-name="T.sc" horiz-adv-x="559" 
d="M543 563v-125h-191v-438h-144v438h-193v125h528z" />
    <glyph glyph-name="U.sc" horiz-adv-x="650" 
d="M324 123q68 0 99 43t31 108v289h144v-289q0 -124 -68.5 -201.5t-205.5 -77.5q-138 0 -205.5 79t-67.5 200v289h144v-289q0 -66 31 -108.5t98 -42.5z" />
    <glyph glyph-name="V.sc" horiz-adv-x="598" 
d="M-3 563h153l149 -360l148 360h152l-240 -563h-120z" />
    <glyph glyph-name="W.alt" horiz-adv-x="1118" 
d="M931 711h187l-221 -710h-170l-169 441l-166 -442h-170l-221 710h186l136 -463l146 463h178l149 -462z" />
    <glyph glyph-name="W.sc" horiz-adv-x="940" 
d="M377 297l-104 265h132l64 -176l65 176h133l-106 -265l58 -124l166 390h157l-252 -563h-120l-100 210l-100 -210h-121l-252 563h156l168 -390z" />
    <glyph glyph-name="X.sc" horiz-adv-x="586" 
d="M-1 563h156l138 -185l138 185h156l-218 -285l211 -278h-155l-132 177l-131 -177h-156l211 278z" />
    <glyph glyph-name="Y.sc" horiz-adv-x="576" 
d="M-5 563h156l137 -250l139 250h156l-223 -374v-189h-144v190z" />
    <glyph glyph-name="Z.sc" horiz-adv-x="564" 
d="M30 0v107l329 331h-317v125h484v-107l-315 -331h319v-125h-500z" />
    <glyph glyph-name="a.alt" horiz-adv-x="640" 
d="M273 -10q-109 0 -178.5 77.5t-69.5 195.5q0 115 66 193.5t166 78.5q55 0 100 -26t69 -70v79h160v-518h-160v78q-49 -88 -153 -88zM426 198v109q-16 41 -48.5 66.5t-69.5 25.5q-50 0 -84 -41.5t-34 -97.5q0 -58 35.5 -96.5t89.5 -38.5q69 0 111 73z" />
    <glyph glyph-name="a.alt2" horiz-adv-x="573" 
d="M525 0h-154v69q-56 -79 -167 -79q-78 0 -130 48t-52 119q0 79 64.5 127t160.5 48q72 0 118 -22v24q0 91 -105 91q-77 0 -164 -58l-47 100q104 68 227 68q119 0 184 -57t65 -163v-315zM342 138q23 18 23 38v50q-43 17 -91 17q-42 0 -71.5 -19.5t-29.5 -52.5
q0 -28 22.5 -47t55.5 -19q56 0 91 33z" />
    <glyph glyph-name="c_t" horiz-adv-x="972" 
d="M935 155l30 -127q-88 -38 -161 -38q-65 0 -105.5 34t-40.5 106v274h-67v121h67q-1 77 -15.5 108.5t-62.5 31.5q-81 0 -81 -90q0 -64 53 -179l-156 -47q-32 50 -92 50q-51 0 -83.5 -39t-32.5 -98q0 -60 34 -98.5t83 -38.5q29 0 54.5 14t37.5 38l156 -48
q-31 -64 -95.5 -101.5t-151.5 -37.5q-129 0 -205.5 80t-76.5 193t76 192.5t210 79.5q77 0 144 -39q-21 51 -21 88q0 72 50 111t145 39q39 0 70 -7t50.5 -16.5t33.5 -28t21 -33t10.5 -40t4 -41t0.5 -43.5h107v-121h-107v-219q0 -49 46 -49q29 0 71 19z" />
    <glyph glyph-name="d.alt" horiz-adv-x="639" 
d="M585 0h-159v76q-49 -86 -153 -86q-108 0 -178 77.5t-70 195.5q0 116 65.5 194t165.5 78q55 0 99.5 -26t69.5 -70v291h160v-730zM426 198v110q-16 40 -49.5 65.5t-69.5 25.5q-50 0 -83.5 -41.5t-33.5 -97.5q0 -58 35.5 -96.5t89.5 -38.5q35 0 65 19.5t46 53.5z" />
    <glyph glyph-name="eight.lnum" horiz-adv-x="608" 
d="M567 215q0 -99 -76.5 -161.5t-187.5 -62.5q-109 0 -185.5 64.5t-76.5 165.5q0 52 29.5 92.5t70.5 65.5q-34 18 -56.5 53.5t-22.5 73.5q0 63 38.5 111t92.5 70.5t111 22.5q91 0 166.5 -55t75.5 -147q0 -38 -22.5 -74.5t-56.5 -54.5q42 -25 71 -67t29 -97zM404 225
q0 40 -29 64t-71 24t-71 -24.5t-29 -64.5q0 -38 30 -63t70 -25q42 0 71 25.5t29 63.5zM225 503q0 -33 24 -51.5t55 -18.5t55.5 19t24.5 51q0 28 -23.5 47t-56.5 19q-34 0 -56.5 -19t-22.5 -47z" />
    <glyph glyph-name="five.lnum" horiz-adv-x="573" 
d="M301 462q102 0 168 -64t66 -165q0 -107 -75 -174.5t-193 -67.5q-77 0 -139 31t-95 87l89 99q29 -35 68 -56t78 -21q47 0 75 27t28 71q0 43 -26 69.5t-67 26.5q-59 0 -88 -46h-138l82 432h353v-146h-237l-20 -121q16 18 71 18z" />
    <glyph glyph-name="four.lnum" horiz-adv-x="590" 
d="M465 1h-160v149h-280v143l330 418h110v-418h88v-143h-88v-149zM323 471l-139 -178h139v178z" />
    <glyph glyph-name="j.alt" 
d="M54 -213v730h160v-730h-160zM54 585v143h159v-143h-159z" />
    <glyph glyph-name="l.alt" horiz-adv-x="271" 
d="M56 0v730h160v-730h-160z" />
    <glyph glyph-name="nine.lnum" horiz-adv-x="607" 
d="M38 467q0 105 75.5 177t187.5 72q124 0 194 -89t70 -248q0 -184 -75 -286.5t-206 -102.5q-134 0 -222 105l90 102q52 -68 135 -68q59 0 93.5 42.5t36.5 118.5q-42 -58 -130 -58q-106 0 -177.5 67.5t-71.5 167.5zM300 581q-44 0 -76.5 -34t-32.5 -80q0 -45 32 -76.5
t78 -31.5q45 0 77 31.5t32 76.5q0 46 -33 80t-77 34z" />
    <glyph glyph-name="one.lnum" horiz-adv-x="517" 
d="M368 144h127v-144h-430v144h140v415q-18 -26 -71.5 -56t-91.5 -30v147q32 0 72.5 24t64.5 45.5t26 26.5h163v-572z" />
    <glyph glyph-name="q.alt" horiz-adv-x="638" 
d="M252 -10q-98 0 -162.5 79t-64.5 195q0 115 69.5 193t174.5 78q113 0 176 -96v86h139v-739h-160v299q-54 -95 -172 -95zM313 125q66 0 111 71v111q-12 39 -46 65.5t-70 26.5q-51 0 -85.5 -41t-34.5 -98q0 -59 35 -97t90 -38z" />
    <glyph glyph-name="seven.lnum" horiz-adv-x="577" 
d="M54 1l279 564h-299v146h551l-350 -710h-181z" />
    <glyph glyph-name="six.lnum" horiz-adv-x="607" 
d="M569 239q0 -105 -75.5 -177t-186.5 -72q-124 0 -194 89t-70 248q0 185 74.5 287t205.5 102q134 0 222 -105l-90 -102q-52 68 -134 68q-59 0 -94 -42.5t-36 -118.5q43 57 130 57q106 0 177 -67t71 -167zM307 125q44 0 77 34t33 80q0 45 -32.5 76.5t-77.5 31.5t-77.5 -31.5
t-32.5 -76.5q0 -46 33 -80t77 -34z" />
    <glyph glyph-name="t.alt" horiz-adv-x="387" 
d="M257 0h-164v437h-79v144h79v151h164v-151h121v-144h-121v-437z" />
    <glyph glyph-name="three.lnum" horiz-adv-x="587" 
d="M269 -9q-172 0 -230 128l83 109q9 -28 45 -59t99 -31q47 0 79 20t32 57q0 86 -195 86h-33v133h32q79 0 128.5 20.5t49.5 61.5q0 33 -26 48t-55 15q-95 0 -143 -74l-102 118q36 45 104.5 70.5t139.5 25.5q109 0 181 -56t72 -139q0 -57 -35.5 -96t-96.5 -52
q66 -11 105.5 -62.5t39.5 -119.5q0 -99 -81.5 -151t-192.5 -52z" />
    <glyph glyph-name="two.lnum" horiz-adv-x="622" 
d="M571 0h-530q0 143 37 216t142 120q44 19 64.5 30t49.5 31t41.5 43.5t12.5 53.5q0 40 -23 61t-63 21q-83 0 -160 -79l-99 106q40 45 114 80t167 35q117 0 181.5 -59t64.5 -163q0 -81 -39.5 -129t-118.5 -88q-70 -35 -104 -65.5t-34 -69.5h297v-144z" />
    <glyph glyph-name="u.alt" horiz-adv-x="612" 
d="M558 0h-153v81q-53 -91 -181 -91q-174 0 -174 199v336h160v-301q0 -99 77 -99q68 0 111 76v324h160v-525z" />
    <glyph glyph-name="w.alt" horiz-adv-x="882" 
d="M700 0h-174l-86 275l-85 -275h-173l-179 525h165l107 -335l91 335h150l90 -335l108 335h164z" />
    <glyph glyph-name="y.alt" horiz-adv-x="545" 
d="M393 525h150l-240 -738h-186l18 47q18 46 39 99t27 67l-200 525h165l122 -388z" />
    <glyph glyph-name="zero.lnum" horiz-adv-x="708" 
d="M354 -10q-75 0 -136.5 33.5t-99.5 87t-58.5 115.5t-20.5 124q0 88 37 169t111 136t167 55q60 0 112 -22.5t88.5 -59.5t63 -84t39 -97t12.5 -97q0 -88 -37.5 -169.5t-111 -136t-166.5 -54.5zM205 350q0 -84 38.5 -149t110.5 -65q50 0 85 36t49 82.5t14 95.5
q0 83 -39 148.5t-109 65.5q-50 0 -85.5 -36t-49.5 -82.5t-14 -95.5z" />
    </font>
</defs>
</svg>
